Слежка 2: Снова в засаде / Another Stakeout (1993) BDRip [H.264]

Ответить на тему
 
Автор Сообщение

MAG3131 ®

Пол: Мужской

Стаж: 52 года

Сообщений: 108

Откуда: Санкт-Петербург

Создавать темы 21-Ноя-2020 00:34

[Цитировать]

Слежка 2: Снова в засаде / Another Stakeout (1993) BDRip [H.264] - Производство: США / Kouf/Bigelow Productions, Stakeout II Productions, Touchstone Pictures, Touchwood Pacific Partners 1
Жанр: комедия, криминал
Режиссер: Джон Бэдэм
Продюсер: Джим Кауф, Кэтлин Саммерс, Джон Бэдэм
Актеры: Ричард Дрейфусс, Эмилио Эстевес, Рози О’Доннелл, Деннис Фарина, Марша Стрэссмен, Кэти Мориарти, Джон Рубинстайн, Мигель Феррер, Шэрон Моан, Кристофер Дойл
Описание:
Полицейским Крису и Биллу вновь доверяют ответственное задание. На этот раз им предстоит разыскать важного свидетеля, который скрывается от мести мафии. Вдвоем они без труда справились бы с этим поручением, но в их дружной компании появляется третий лишний, когда окружной прокурор направляет к ним помощницу Джину.
Эта самоуверенная дама приводит с собой собачку - огромного ротвейлера. Вместе они отправляются на поиски. И они обязательно выполнят задание... если по пути песик не слопает друзей, а полицейские и их новая напарница не перестреляют друг друга!..

Возраст: 16+ (зрителям, достигшим 16 лет)
Рейтинг MPAA: PG-13 (детям до 13 лет просмотр нежелателен)
Релиз от: MAG3131
Продолжительность: 01:48:38
Качество видео: BDRip
Перевод: Многоголосый
Субтитры: Отсутствуют
Видео: AVC/H.264, 720x308, ~1414 kbps, 23,976 fps
Аудио #01: AC3, 2 ch, 192 kbps (Русский - Многоголосый ''Студия ''Инис'' / ТВ3'')
Аудио #02: AC3, 2 ch, 192 kbps (Русский - Многоголосый)

MediaInfo

Общее
Уникальный идентификатор : 236138051393062114059880596678952284040 (0xB1A688CFAA37731731399A642CA2EF88)
Полное имя : Слежка - 02 ''Снова в засаде'' (Stakeout - 02 ''Another Stakeout'').mkv
Формат : Matroska
Версия формата : Version 4
Размер файла : 1,37 Гбайт
Продолжительность : 1 ч. 48 м.
Общий поток : 1 799 Кбит/сек
Дата кодирования : UTC 2020-11-20 21:10:00
Программа кодирования : mkvmerge v51.0.0 ('I Wish') 64-bit
Библиотека кодирования : libebml v1.4.0 + libmatroska v1.6.2
Attachments : Лог кодирования.log
Видео
Идентификатор : 1
Формат : AVC
Формат/Информация : Advanced Video Codec
Профиль формата : High@L4.1
Настройки формата : CABAC / 12 Ref Frames
Параметр CABAC формата : Да
Параметр RefFrames формата : 12 кадров
Идентификатор кодека : V_MPEG4/ISO/AVC
Продолжительность : 1 ч. 48 м.
Битрейт : 1 414 Кбит/сек
Ширина : 720 пикселей
Высота : 308 пикселей
Соотношение сторон : 2,35:1
Режим частоты кадров : Постоянный
Частота кадров : 23,976 (24000/1001) кадра/сек
Цветовое пространство : YUV
Субдискретизация насыщенности : 4:2:0
Битовая глубина : 8 бит
Тип развёртки : Прогрессивная
Бит/(Пиксели*Кадры) : 0.266
Размер потока : 1,05 Гбайт (77%)
Заголовок : Слежка - 02 ''Снова в засаде'' (Stakeout - 02 ''Another Stakeout'')
Библиотека кодирования : x264 core 157 r2969 d4099dd
Настройки программы : cabac=1 / ref=12 / deblock=1:-1:-1 / analyse=0x3:0x133 / me=umh / subme=11 / psy=1 / psy_rd=1.00:0.15 / mixed_ref=1 / me_range=64 / chroma_me=1 / trellis=2 / 8x8dct=1 / cqm=0 / deadzone=21,11 / fast_pskip=0 / chroma_qp_offset=-3 / threads=6 / lookahead_threads=1 / sliced_threads=0 / nr=0 / decimate=0 / interlaced=0 / bluray_compat=0 / constrained_intra=0 / bframes=16 / b_pyramid=2 / b_adapt=2 / b_bias=0 / direct=3 / weightb=1 / open_gop=0 / weightp=2 / keyint=240 / keyint_min=23 / scenecut=40 / intra_refresh=0 / rc_lookahead=60 / rc=2pass / mbtree=0 / bitrate=1414 / ratetol=1.0 / qcomp=0.60 / qpmin=0 / qpmax=69 / qpstep=4 / cplxblur=20.0 / qblur=0.5 / vbv_maxrate=50000 / vbv_bufsize=62500 / nal_hrd=none / filler=0 / ip_ratio=1.40 / pb_ratio=1.30 / aq=1:1.00
Язык : English
Default : Да
Forced : Нет
Аудио #1
Идентификатор : 2
Формат : AC-3
Формат/Информация : Audio Coding 3
Коммерческое название : Dolby Digital
Идентификатор кодека : A_AC3
Продолжительность : 1 ч. 48 м.
Вид битрейта : Постоянный
Битрейт : 192 Кбит/сек
Каналы : 2 канала
Channel layout : L R
Частота : 48,0 КГц
Частота кадров : 31,250 кадров/сек (1536 SPF)
Метод сжатия : С потерями
Размер потока : 149 Мбайт (11%)
Заголовок : Многоголосый ''Студия ''Инис'' / ТВ3'' (AC-3, Постоянный, 192 Кбит/сек, 2 канала, 48,0 КГц)
Язык : Russian
Service kind : Complete Main
Default : Да
Forced : Нет
Аудио #2
Идентификатор : 3
Формат : AC-3
Формат/Информация : Audio Coding 3
Коммерческое название : Dolby Digital
Идентификатор кодека : A_AC3
Продолжительность : 1 ч. 48 м.
Вид битрейта : Постоянный
Битрейт : 192 Кбит/сек
Каналы : 2 канала
Channel layout : L R
Частота : 48,0 КГц
Частота кадров : 31,250 кадров/сек (1536 SPF)
Метод сжатия : С потерями
Размер потока : 149 Мбайт (11%)
Заголовок : Многоголосый ''Неизвестно'' (AC-3, Постоянный, 192 Кбит/сек, 2 канала, 48,0 КГц)
Язык : Russian
Service kind : Complete Main
Default : Нет
Forced : Нет
Меню
00:00:00.000 : :Глава 01
00:04:45.827 : :Глава 02
00:11:13.381 : :Глава 03
00:16:34.827 : :Глава 04
00:24:09.781 : :Глава 05
00:31:50.909 : :Глава 06
00:38:10.371 : :Глава 07
00:47:05.864 : :Глава 08
00:54:26.221 : :Глава 09
01:01:35.942 : :Глава 10
01:05:09.363 : :Глава 11
01:12:40.355 : :Глава 12
01:18:27.202 : :Глава 13
01:30:04.941 : :Глава 14
01:42:00.113 : :Глава 15
Скриншоты:
Если надо вернуться на сидирование раздачи пишите в ЛС.
По вопросам изготовления рипов под заказ обращайтесь в ЛС.
[Профиль] [ЛС]
Показать сообщения:    
Ответить на тему

Текущее время: 24-Май 08:39

Часовой пояс: UTC + 3



Вы не можете начинать темы
Вы не можете отвечать на сообщения
Вы не можете редактировать свои сообщения
Вы не можете удалять свои сообщения
Вы не можете голосовать в опросах
Вы не можете прикреплять файлы к сообщениям
Вы не можете скачивать файлы