Загадай желание / Wish Upon a Star (1996) DVDRip [H.264]

Ответить на тему
 
Автор Сообщение

MAG3131 ®

Пол: Мужской

Стаж: 52 года

Сообщений: 108

Откуда: Санкт-Петербург

Создавать темы 04-Янв-2021 16:53

[Цитировать]

Загадай желание / Wish Upon a Star (1996) DVDRip [H.264] - Производство: США / Leucadia Film Corporation
Жанр: фэнтези, комедия, семейный
Режиссер: Блэр Трэ
Продюсер: Дон Шэйн, Дэвид Андерсон, Х.Э. Скраггс
Актеры: Кэтрин Хайгл, Даниэль Харрис, Дон Джефкоат, Скотт Уилкинсон, Мэри Паркер Уильямс, Лоис Чайлз, Айви Ллойд, Мэтт Баркер, Жак Грэй, Кари Уайт
Описание:
Алексия и Хайли - родные сестры, но они совсем непохожи друг на друга. Алексия, старшая сестра, любит красиво одеваться, у нее есть мальчик и учеба ее мало интересует. Хайли, наоборот, много занимается. Однажды Хайли, увидев падающую звезду, загадывает желание: поменяться местами со своей сестрой.

Возраст: 0+ (для любой зрительской аудитории)
Рейтинг MPAA: PG (рекомендуется присутствие родителей)
Релиз от: MAG3131
Продолжительность: 01:29:35
Качество видео: DVDRip
Перевод: Многоголосый
Субтитры: Отсутствуют
Видео: AVC/H.264, 640x480, ~1989 kbps, 23,976 fps
Аудио: AC3, 2 ch, 192 kbps (Русский - Многоголосый ''ТНТ'')

MediaInfo

Общее
Уникальный идентификатор : 186710772736332899701156321413195852475 (0x8C772FD31FF0FCB49330DE5A35076ABB)
Полное имя : Загадай желание (1996 год) (Wish Upon A Star) (1996 Year).mkv
Формат : Matroska
Версия формата : Version 2
Размер файла : 1,37 Гбайт
Продолжительность : 1 ч. 29 м.
Общий поток : 2 183 Кбит/сек
Дата кодирования : UTC 2015-05-03 15:07:19
Программа кодирования : mkvmerge v3.4.0 ('Rapunzel') сборка от May 15 2010 09:38:20
Библиотека кодирования : libebml v0.8.0 + libmatroska v0.9.0
Attachments : Лог кодирования.log
Видео
Идентификатор : 1
Формат : AVC
Формат/Информация : Advanced Video Codec
Профиль формата : High@L4.1
Настройки формата : CABAC / 11 Ref Frames
Параметр CABAC формата : Да
Параметр RefFrames формата : 11 кадров
Идентификатор кодека : V_MPEG4/ISO/AVC
Продолжительность : 1 ч. 29 м.
Битрейт : 1 989 Кбит/сек
Ширина : 640 пикселей
Высота : 480 пикселей
Соотношение сторон : 4:3
Режим частоты кадров : Постоянный
Частота кадров : 23,976 (24000/1001) кадра/сек
Цветовое пространство : YUV
Субдискретизация насыщенности : 4:2:0
Битовая глубина : 8 бит
Тип развёртки : Прогрессивная
Бит/(Пиксели*Кадры) : 0.270
Размер потока : 1,22 Гбайт (89%)
Заголовок : Загадай желание (1996 год) (Wish Upon A Star) (1996 Year)
Библиотека кодирования : x264 core 146 r2538 121396c
Настройки программы : cabac=1 / ref=11 / deblock=1:-1:-1 / analyse=0x3:0x133 / me=umh / subme=11 / psy=1 / psy_rd=1.00:0.15 / mixed_ref=1 / me_range=64 / chroma_me=1 / trellis=2 / 8x8dct=1 / cqm=0 / deadzone=21,11 / fast_pskip=0 / chroma_qp_offset=-3 / threads=3 / lookahead_threads=1 / sliced_threads=0 / nr=0 / decimate=0 / interlaced=0 / bluray_compat=0 / constrained_intra=0 / bframes=16 / b_pyramid=2 / b_adapt=2 / b_bias=0 / direct=3 / weightb=1 / open_gop=0 / weightp=2 / keyint=240 / keyint_min=23 / scenecut=40 / intra_refresh=0 / rc_lookahead=60 / rc=2pass / mbtree=0 / bitrate=1989 / ratetol=1.0 / qcomp=0.60 / qpmin=0 / qpmax=69 / qpstep=4 / cplxblur=20.0 / qblur=0.5 / vbv_maxrate=50000 / vbv_bufsize=62500 / nal_hrd=none / filler=0 / ip_ratio=1.40 / pb_ratio=1.30 / aq=1:1.00
Язык : English
Default : Да
Forced : Нет
Аудио
Идентификатор : 2
Формат : AC-3
Формат/Информация : Audio Coding 3
Коммерческое название : Dolby Digital
Идентификатор кодека : A_AC3
Продолжительность : 1 ч. 29 м.
Вид битрейта : Постоянный
Битрейт : 192 Кбит/сек
Каналы : 2 канала
Channel layout : L R
Частота : 48,0 КГц
Частота кадров : 31,250 кадров/сек (1536 SPF)
Метод сжатия : С потерями
Размер потока : 123 Мбайт (9%)
Заголовок : Многоголосый ''ТНТ'' (AC-3, Постоянный, 192 Кбит/сек, 2 канала, 48,0 КГц)
Язык : Russian
Service kind : Complete Main
Default : Да
Forced : Нет
Меню
00:00:00.000 : en:Chapter 01
00:07:17.067 : en:Chapter 02
00:09:13.100 : en:Chapter 03
00:12:14.667 : en:Chapter 04
00:13:16.268 : en:Chapter 05
00:17:01.835 : en:Chapter 06
00:24:17.636 : en:Chapter 07
00:29:48.504 : en:Chapter 08
00:32:43.537 : en:Chapter 09
00:34:38.505 : en:Chapter 10
00:36:48.139 : en:Chapter 11
00:38:09.272 : en:Chapter 12
00:41:36.506 : en:Chapter 13
00:43:11.340 : en:Chapter 14
00:45:54.540 : en:Chapter 15
00:47:23.007 : en:Chapter 16
00:48:53.407 : en:Chapter 17
00:52:59.141 : en:Chapter 18
00:55:29.408 : en:Chapter 19
00:57:31.376 : en:Chapter 20
00:59:24.077 : en:Chapter 21
01:02:15.444 : en:Chapter 22
01:05:08.011 : en:Chapter 23
01:09:30.011 : en:Chapter 24
01:13:02.945 : en:Chapter 25
01:15:08.579 : en:Chapter 26
01:18:44.246 : en:Chapter 27
01:20:16.346 : en:Chapter 28
Скриншоты:
Если надо вернуться на сидирование раздачи пишите в ЛС.
По вопросам изготовления рипов под заказ обращайтесь в ЛС.
[Профиль] [ЛС]
Показать сообщения:    
Ответить на тему

Текущее время: 24-Май 09:30

Часовой пояс: UTC + 3



Вы не можете начинать темы
Вы не можете отвечать на сообщения
Вы не можете редактировать свои сообщения
Вы не можете удалять свои сообщения
Вы не можете голосовать в опросах
Вы не можете прикреплять файлы к сообщениям
Вы не можете скачивать файлы