Назад в будущее / Back to the Future (1985) BDRip [H.264]

Ответить на тему
 
Автор Сообщение

MAG3131 ®

Пол: Мужской

Стаж: 52 года

Сообщений: 108

Откуда: Санкт-Петербург

Создавать темы 04-Янв-2021 18:07

[Цитировать]

Назад в будущее / Back to the Future (1985) BDRip [H.264] - Производство: США / Amblin Entertainment, U-Drive Productions, Universal Pictures
Жанр: фантастика, комедия, приключения
Режиссер: Роберт Земекис
Продюсер: Нил Кэнтон, Боб Гейл, Кэтлин Кеннеди
Актеры: Майкл Дж. Фокс, Кристофер Ллойд, Лиа Томпсон, Криспин Гловер, Томас Ф. Уилсон, Клаудия Уэллс, Марк МакКлюр, Уэнди Джо Спербер, Джордж ДиЧенцо, Фрэнсис Ли МакКейн
Описание:
Подросток Марти с помощью машины времени, сооружённой его другом-профессором доком Брауном, попадает из 80-х в далекие 50-е. Там он встречается со своими будущими родителями, ещё подростками, и другом-профессором, совсем молодым.

Возраст: 12+ (зрителям, достигшим 12 лет)
Рейтинг MPAA: PG (рекомендуется присутствие родителей)
Релиз от: MAG3131
Продолжительность: 01:56:31
Качество видео: BDRip
Перевод: Дублированный, Авторский
Субтитры: Отсутствуют
Видео: AVC/H.264, 720x392, ~2142 kbps, 23,976 fps
Аудио #01: AC3, 2 ch, 192 kbps (Русский - Дублированный ''Пифагор / Blu-ray CEE'')
Аудио #02: AC3, 2 ch, 192 kbps (Русский - Авторский ''Дмитрий ''Goblin'' Пучков'')

MediaInfo

Общее
Уникальный идентификатор : 22980188033769973997093246999912796877 (0x1149D2BEF3959A8D09A14DBA99C052CD)
Полное имя : Назад в будущее - 01 (Back To The Future - 01).mkv
Формат : Matroska
Версия формата : Version 4
Размер файла : 2,05 Гбайт
Продолжительность : 1 ч. 56 м.
Общий поток : 2 517 Кбит/сек
Дата кодирования : UTC 2020-12-05 23:25:17
Программа кодирования : mkvmerge v51.0.0 ('I Wish') 64-bit
Библиотека кодирования : libebml v1.4.0 + libmatroska v1.6.2
Attachments : Лог кодирования.log
Видео
Идентификатор : 1
Формат : AVC
Формат/Информация : Advanced Video Codec
Профиль формата : High@L4.1
Настройки формата : CABAC / 12 Ref Frames
Параметр CABAC формата : Да
Параметр RefFrames формата : 12 кадров
Идентификатор кодека : V_MPEG4/ISO/AVC
Продолжительность : 1 ч. 56 м.
Битрейт : 2 142 Кбит/сек
Ширина : 720 пикселей
Высота : 392 пикселя
Соотношение сторон : 1,85:1
Режим частоты кадров : Постоянный
Частота кадров : 23,976 (24000/1001) кадра/сек
Цветовое пространство : YUV
Субдискретизация насыщенности : 4:2:0
Битовая глубина : 8 бит
Тип развёртки : Прогрессивная
Бит/(Пиксели*Кадры) : 0.317
Размер потока : 1,70 Гбайт (83%)
Заголовок : Назад в будущее - 01 (Back To The Future - 01)
Библиотека кодирования : x264 core 157 r2969 d4099dd
Настройки программы : cabac=1 / ref=12 / deblock=1:-1:-1 / analyse=0x3:0x133 / me=umh / subme=11 / psy=1 / psy_rd=1.00:0.15 / mixed_ref=1 / me_range=64 / chroma_me=1 / trellis=2 / 8x8dct=1 / cqm=0 / deadzone=21,11 / fast_pskip=0 / chroma_qp_offset=-3 / threads=6 / lookahead_threads=1 / sliced_threads=0 / nr=0 / decimate=0 / interlaced=0 / bluray_compat=0 / constrained_intra=0 / bframes=16 / b_pyramid=2 / b_adapt=2 / b_bias=0 / direct=3 / weightb=1 / open_gop=0 / weightp=2 / keyint=240 / keyint_min=23 / scenecut=40 / intra_refresh=0 / rc_lookahead=60 / rc=2pass / mbtree=0 / bitrate=2142 / ratetol=1.0 / qcomp=0.60 / qpmin=0 / qpmax=69 / qpstep=4 / cplxblur=20.0 / qblur=0.5 / vbv_maxrate=50000 / vbv_bufsize=62500 / nal_hrd=none / filler=0 / ip_ratio=1.40 / pb_ratio=1.30 / aq=1:1.00
Язык : English
Default : Да
Forced : Нет
Аудио #1
Идентификатор : 2
Формат : AC-3
Формат/Информация : Audio Coding 3
Коммерческое название : Dolby Digital
Идентификатор кодека : A_AC3
Продолжительность : 1 ч. 56 м.
Вид битрейта : Постоянный
Битрейт : 192 Кбит/сек
Каналы : 2 канала
Channel layout : L R
Частота : 48,0 КГц
Частота кадров : 31,250 кадров/сек (1536 SPF)
Метод сжатия : С потерями
Размер потока : 160 Мбайт (8%)
Заголовок : Дублированный ''Пифагор / Blu-ray CEE'' (AC-3, Постоянный, 192 Кбит/сек, 2 канала, 48,0 КГц)
Язык : Russian
Service kind : Complete Main
Default : Да
Forced : Нет
Аудио #2
Идентификатор : 3
Формат : AC-3
Формат/Информация : Audio Coding 3
Коммерческое название : Dolby Digital
Идентификатор кодека : A_AC3
Продолжительность : 1 ч. 56 м.
Вид битрейта : Постоянный
Битрейт : 192 Кбит/сек
Каналы : 2 канала
Channel layout : L R
Частота : 48,0 КГц
Частота кадров : 31,250 кадров/сек (1536 SPF)
Метод сжатия : С потерями
Размер потока : 160 Мбайт (8%)
Заголовок : Авторский ''Дмитрий ''Goblin'' Пучков'' (AC-3, Постоянный, 192 Кбит/сек, 2 канала, 48,0 КГц)
Язык : Russian
Service kind : Complete Main
Default : Нет
Forced : Нет
Меню
00:00:00.000 : :Глава 01
00:04:13.545 : :Глава 02
00:06:47.282 : :Глава 03
00:11:45.246 : :Глава 04
00:18:04.166 : :Глава 05
00:28:12.274 : :Глава 06
00:31:30.680 : :Глава 07
00:38:40.693 : :Глава 08
00:41:22.313 : :Глава 09
00:47:53.370 : :Глава 10
00:55:53.141 : :Глава 11
00:58:49.860 : :Глава 12
01:05:16.788 : :Глава 13
01:16:40.304 : :Глава 14
01:20:14.643 : :Глава 15
01:27:23.321 : :Глава 16
01:31:12.050 : :Глава 17
01:41:40.553 : :Глава 18
01:46:41.437 : :Глава 19
01:51:24.511 : :Глава 20
Скриншоты:
Если надо вернуться на сидирование раздачи пишите в ЛС.
По вопросам изготовления рипов под заказ обращайтесь в ЛС.
[Профиль] [ЛС]
Показать сообщения:    
Ответить на тему

Текущее время: 24-Май 08:04

Часовой пояс: UTC + 3



Вы не можете начинать темы
Вы не можете отвечать на сообщения
Вы не можете редактировать свои сообщения
Вы не можете удалять свои сообщения
Вы не можете голосовать в опросах
Вы не можете прикреплять файлы к сообщениям
Вы не можете скачивать файлы