Космические яйца / Spaceballs (1987) BDRip [H.264]

Ответить на тему
 
Автор Сообщение

MAG3131 ®

Пол: Мужской

Стаж: 52 года

Сообщений: 108

Откуда: Санкт-Петербург

Создавать темы 04-Янв-2021 20:28

[Цитировать]

Космические яйца / Spaceballs (1987) BDRip [H.264] - Производство: США / Brooksfilms, Metro-Goldwyn-Mayer (MGM)
Жанр: фантастика, комедия, приключения
Режиссер: Мэл Брукс
Продюсер: Мэл Брукс, Эзра Свердлоу
Актеры: Мэл Брукс, Джон Кэнди, Рик Морэнис, Билл Пуллман, Дафна Зунига, Дик Ван Паттен, Джордж Уайнер, Майкл Уинслоу, Джоан Риверз, Лорен Ярнелл
Описание:
Президент планеты Космические Яйца посылает лорда Темный Шлем выкрасть принцессу Веспу. Взамен он хочет получить весь воздух с планеты Друидия. Остановить злого президента и уничтожить планету Космические Яйца под силу только Лону Старру и великому Йогурту!

Возраст: 6+ (зрителям, достигшим 6 лет)
Рейтинг MPAA: PG (рекомендуется присутствие родителей)
Релиз от: MAG3131
Продолжительность: 01:36:13
Качество видео: BDRip
Перевод: Многоголосый
Субтитры: Отсутствуют
Видео: AVC/H.264, 720x392, ~1839 kbps, 23,976 fps
Аудио: AC3, 2 ch, 192 kbps (Русский - Многоголосый ''R5'' с вставками двухголосого ''НТВ+'')

MediaInfo

Общее
Уникальный идентификатор : 147173762282341355587834064880713728309 (0x6EB8A2B56BD8CD8891C95BBF15BE0135)
Полное имя : Космические яйца (Spaceballs).mkv
Формат : Matroska
Версия формата : Version 4
Размер файла : 1,37 Гбайт
Продолжительность : 1 ч. 36 м.
Общий поток : 2 033 Кбит/сек
Дата кодирования : UTC 2020-11-30 17:50:49
Программа кодирования : mkvmerge v51.0.0 ('I Wish') 64-bit
Библиотека кодирования : libebml v1.4.0 + libmatroska v1.6.2
Attachments : Лог кодирования.log
Видео
Идентификатор : 1
Формат : AVC
Формат/Информация : Advanced Video Codec
Профиль формата : High@L4.1
Настройки формата : CABAC / 12 Ref Frames
Параметр CABAC формата : Да
Параметр RefFrames формата : 12 кадров
Идентификатор кодека : V_MPEG4/ISO/AVC
Продолжительность : 1 ч. 36 м.
Битрейт : 1 839 Кбит/сек
Ширина : 720 пикселей
Высота : 392 пикселя
Соотношение сторон : 1,85:1
Режим частоты кадров : Постоянный
Частота кадров : 23,976 (24000/1001) кадра/сек
Цветовое пространство : YUV
Субдискретизация насыщенности : 4:2:0
Битовая глубина : 8 бит
Тип развёртки : Прогрессивная
Бит/(Пиксели*Кадры) : 0.272
Размер потока : 1,21 Гбайт (89%)
Заголовок : Космические яйца (Spaceballs)
Библиотека кодирования : x264 core 157 r2969 d4099dd
Настройки программы : cabac=1 / ref=12 / deblock=1:-1:-1 / analyse=0x3:0x133 / me=umh / subme=11 / psy=1 / psy_rd=1.00:0.15 / mixed_ref=1 / me_range=64 / chroma_me=1 / trellis=2 / 8x8dct=1 / cqm=0 / deadzone=21,11 / fast_pskip=0 / chroma_qp_offset=-3 / threads=6 / lookahead_threads=1 / sliced_threads=0 / nr=0 / decimate=0 / interlaced=0 / bluray_compat=0 / constrained_intra=0 / bframes=16 / b_pyramid=2 / b_adapt=2 / b_bias=0 / direct=3 / weightb=1 / open_gop=0 / weightp=2 / keyint=240 / keyint_min=23 / scenecut=40 / intra_refresh=0 / rc_lookahead=60 / rc=2pass / mbtree=0 / bitrate=1839 / ratetol=1.0 / qcomp=0.60 / qpmin=0 / qpmax=69 / qpstep=4 / cplxblur=20.0 / qblur=0.5 / vbv_maxrate=50000 / vbv_bufsize=62500 / nal_hrd=none / filler=0 / ip_ratio=1.40 / pb_ratio=1.30 / aq=1:1.00
Язык : English
Default : Да
Forced : Нет
Аудио
Идентификатор : 2
Формат : AC-3
Формат/Информация : Audio Coding 3
Коммерческое название : Dolby Digital
Идентификатор кодека : A_AC3
Продолжительность : 1 ч. 36 м.
Вид битрейта : Постоянный
Битрейт : 192 Кбит/сек
Каналы : 2 канала
Channel layout : L R
Частота : 48,0 КГц
Частота кадров : 31,250 кадров/сек (1536 SPF)
Метод сжатия : С потерями
Размер потока : 132 Мбайт (9%)
Заголовок : Многоголосый ''R5'' с вставками двухголосого ''НТВ+'' (AC-3, Постоянный, 192 Кбит/сек, 2 канала, 48,0 КГц)
Язык : Russian
Service kind : Complete Main
Default : Да
Forced : Нет
Меню
00:00:00.000 : :Глава 01
00:01:52.820 : :Глава 02
00:07:13.016 : :Глава 03
00:09:37.910 : :Глава 04
00:13:45.658 : :Глава 05
00:16:58.517 : :Глава 06
00:18:24.311 : :Глава 07
00:19:49.939 : :Глава 08
00:22:40.192 : :Глава 09
00:26:49.607 : :Глава 10
00:30:16.690 : :Глава 11
00:32:54.722 : :Глава 12
00:34:55.302 : :Глава 13
00:37:13.565 : :Глава 14
00:40:50.907 : :Глава 15
00:43:46.456 : :Глава 16
00:46:59.442 : :Глава 17
00:48:04.047 : :Глава 18
00:49:56.911 : :Глава 19
00:52:34.818 : :Глава 20
00:53:33.293 : :Глава 21
00:55:00.088 : :Глава 22
00:58:24.126 : :Глава 23
01:03:52.996 : :Глава 24
01:07:13.320 : :Глава 25
01:10:42.113 : :Глава 26
01:16:30.211 : :Глава 27
01:20:07.051 : :Глава 28
01:21:45.359 : :Глава 29
01:24:29.314 : :Глава 30
01:28:05.529 : :Глава 31
01:30:40.393 : :Глава 32
Скриншоты:
Если надо вернуться на сидирование раздачи пишите в ЛС.
По вопросам изготовления рипов под заказ обращайтесь в ЛС.
[Профиль] [ЛС]
Показать сообщения:    
Ответить на тему

Текущее время: 24-Май 08:56

Часовой пояс: UTC + 3



Вы не можете начинать темы
Вы не можете отвечать на сообщения
Вы не можете редактировать свои сообщения
Вы не можете удалять свои сообщения
Вы не можете голосовать в опросах
Вы не можете прикреплять файлы к сообщениям
Вы не можете скачивать файлы