Превосходные Рубаки / Slayers Excellent (1998) BDRip [H.264] [3 из 3]

Ответить на тему
 
Автор Сообщение

MAG3131 ®

Пол: Мужской

Стаж: 52 года

Сообщений: 108

Откуда: Санкт-Петербург

Создавать темы 07-Апр-2021 21:54

[Цитировать]

Превосходные Рубаки / Slayers Excellent (1998) BDRip [H.264] [3 из 3] - Производство: Япония / J.C. Staff
Жанр: аниме, мультфильм, фэнтези, комедия, приключения
Режиссер: Хироси Ватанабэ, Sandra Krasa
Продюсер: Киминобу Сато, Цугухико Кадокава, Sandra Krasa
Актеры: Мэгуми Хаясибара, Мария Кавамура, Сё Хаями, Юдзуру Фудзимото, Кацухиса Хоки, Тосихико Накадзима, Хироси Нака, Ясухиро Такато, Наоки Макисима, Кумико Ватанабэ
Описание:
Нет, Лине Инверс в этой жизни определенно не дадут спокойно поесть. Как всегда, на самом интересном месте Наге приспичит спалить таверну. А Лине потом вместе с ней, в качестве уплаты за так и не съеденную еду, пилить в местные руины, искать группу деревенских юношей, а находить вампира... Еще и деньги все были в той самой таверне... Может хоть телохранительством подзаработать? Проводить адмиральскую дочку домой — что может быть проще? Да что угодно, если дочка окажется вредной, избалованной и хвастливой копией Наги. Плюс, за ней бегает маг-мазохист. Ну ее к Шабранигдо, работу такую. Себе дороже. Мир спасать в очередной раз надо, над ним уж в который раз нависла новая смертельная опасность. Все человечество скоро станет подражать Наге, а ее дьявольский смех прозвучит на всю планету. Единственные, кто может спасти человечество это Лина Инверс, полусумасшедший специалист по дизайну официальной формы, ее последователи и их гигантская големоподобная мобильная крепость... И надо же, на этот раз все решится без единого драгонслейва.

Возраст: этот продукт не был классифицирован
Рейтинг MPAA: этот продукт не был классифицирован
Релиз от: MAG3131

Эпизоды

Лабиринт (The Labyrinth) (1998)

Продолжительность: 00:28:40
Качество видео: BDRip
Перевод: Одноголосый
Субтитры: Отсутствуют
Видео: AVC/H.264, 720x516, ~1126 kbps, 23,976 fps
Аудио #01: AC3, 2 ch, 192 kbps (Русский - Одноголосый ''А. Лапшин / Animegroup'' с вставками одноголосого ''Digital Force'')
Аудио #02: AC3, 2 ch, 192 kbps (Русский - Одноголосый ''Digital Force'' с вставками одноголосого ''А. Лапшин / Animegroup'')
Аудио #03: AC3, 2 ch, 192 kbps (Русский - Одноголосый ''Persona99 / Get Smart Group'' с вставками одноголосого ''А. Лапшин / Animegroup'')

MediaInfo

Общее
Уникальный идентификатор : 36228343628150043789107175735938444258 (0x1B41533F2FC2BAF45018EC5C173AEBE2)
Полное имя : Slayers Excellent\Рубаки - 001 ''Превосходные Рубаки - 01 ''Лабиринт'''' (The Slayers - 001 ''Slayers Excellent - 01 ''The Labyrinth'''').mkv
Формат : Matroska
Версия формата : Version 4
Размер файла : 349 Мбайт
Продолжительность : 28 м. 40 с.
Общий поток : 1 704 Кбит/сек
Дата кодирования : UTC 2021-01-20 04:27:34
Программа кодирования : mkvmerge v52.0.0 ('Secret For The Mad') 64-bit
Библиотека кодирования : libebml v1.4.1 + libmatroska v1.6.2
Attachments : Лог кодирования.log
Видео
Идентификатор : 1
Формат : AVC
Формат/Информация : Advanced Video Codec
Профиль формата : High@L4.1
Настройки формата : CABAC / 12 Ref Frames
Параметр CABAC формата : Да
Параметр RefFrames формата : 12 кадров
Идентификатор кодека : V_MPEG4/ISO/AVC
Продолжительность : 28 м. 40 с.
Битрейт : 1 126 Кбит/сек
Ширина : 720 пикселей
Высота : 516 пикселей
Соотношение сторон : 1,395
Режим частоты кадров : Постоянный
Частота кадров : 23,976 (24000/1001) кадра/сек
Цветовое пространство : YUV
Субдискретизация насыщенности : 4:2:0
Битовая глубина : 8 бит
Тип развёртки : Прогрессивная
Бит/(Пиксели*Кадры) : 0.126
Размер потока : 224 Мбайт (64%)
Заголовок : Рубаки - 001 ''Превосходные Рубаки - 01 ''Лабиринт'''' (The Slayers - 001 ''Slayers Excellent - 01 ''The Labyrinth'''')
Библиотека кодирования : x264 core 157 r2969 d4099dd
Настройки программы : cabac=1 / ref=12 / deblock=1:-1:-1 / analyse=0x3:0x133 / me=umh / subme=11 / psy=1 / psy_rd=1.00:0.15 / mixed_ref=1 / me_range=64 / chroma_me=1 / trellis=2 / 8x8dct=1 / cqm=0 / deadzone=21,11 / fast_pskip=0 / chroma_qp_offset=-3 / threads=6 / lookahead_threads=1 / sliced_threads=0 / nr=0 / decimate=0 / interlaced=0 / bluray_compat=0 / constrained_intra=0 / bframes=16 / b_pyramid=2 / b_adapt=2 / b_bias=0 / direct=3 / weightb=1 / open_gop=0 / weightp=2 / keyint=240 / keyint_min=23 / scenecut=40 / intra_refresh=0 / rc_lookahead=60 / rc=2pass / mbtree=0 / bitrate=1126 / ratetol=1.0 / qcomp=0.60 / qpmin=0 / qpmax=69 / qpstep=4 / cplxblur=20.0 / qblur=0.5 / vbv_maxrate=50000 / vbv_bufsize=62500 / nal_hrd=none / filler=0 / ip_ratio=1.40 / pb_ratio=1.30 / aq=1:1.00
Язык : Japanese
Default : Да
Forced : Нет
Аудио #1
Идентификатор : 2
Формат : AC-3
Формат/Информация : Audio Coding 3
Коммерческое название : Dolby Digital
Идентификатор кодека : A_AC3
Продолжительность : 28 м. 40 с.
Вид битрейта : Постоянный
Битрейт : 192 Кбит/сек
Каналы : 2 канала
Channel layout : L R
Частота : 48,0 КГц
Частота кадров : 31,250 кадров/сек (1536 SPF)
Метод сжатия : С потерями
Размер потока : 39,4 Мбайт (11%)
Заголовок : Одноголосый ''А. Лапшин / Animegroup'' с вставками одноголосого ''Digital Force'' (AC-3, Постоянный, 192 Кбит/сек, 2 канала, 48,0 КГц)
Язык : Russian
Service kind : Complete Main
Default : Да
Forced : Нет
Аудио #2
Идентификатор : 3
Формат : AC-3
Формат/Информация : Audio Coding 3
Коммерческое название : Dolby Digital
Идентификатор кодека : A_AC3
Продолжительность : 28 м. 40 с.
Вид битрейта : Постоянный
Битрейт : 192 Кбит/сек
Каналы : 2 канала
Channel layout : L R
Частота : 48,0 КГц
Частота кадров : 31,250 кадров/сек (1536 SPF)
Метод сжатия : С потерями
Размер потока : 39,4 Мбайт (11%)
Заголовок : Одноголосый ''Digital Force'' с вставками одноголосого ''А. Лапшин / Animegroup'' (AC-3, Постоянный, 192 Кбит/сек, 2 канала, 48,0 КГц)
Язык : Russian
Service kind : Complete Main
Default : Нет
Forced : Нет
Аудио #3
Идентификатор : 4
Формат : AC-3
Формат/Информация : Audio Coding 3
Коммерческое название : Dolby Digital
Идентификатор кодека : A_AC3
Продолжительность : 28 м. 40 с.
Вид битрейта : Постоянный
Битрейт : 192 Кбит/сек
Каналы : 2 канала
Channel layout : L R
Частота : 48,0 КГц
Частота кадров : 31,250 кадров/сек (1536 SPF)
Метод сжатия : С потерями
Размер потока : 39,4 Мбайт (11%)
Заголовок : Одноголосый ''Persona99 / Get Smart Group'' с вставками одноголосого ''А. Лапшин / Animegroup'' (AC-3, Постоянный, 192 Кбит/сек, 2 канала, 48,0 КГц)
Язык : Russian
Service kind : Complete Main
Default : Нет
Forced : Нет
Скриншоты:
Если надо вернуться на сидирование раздачи пишите в ЛС.
По вопросам изготовления рипов под заказ обращайтесь в ЛС.

Пугающее будущее (A Frightening Future) (1998)

Продолжительность: 00:28:00
Качество видео: BDRip
Перевод: Одноголосый
Субтитры: Отсутствуют
Видео: AVC/H.264, 720x516, ~1166 kbps, 23,976 fps
Аудио #01: AC3, 2 ch, 192 kbps (Русский - Одноголосый ''А. Лапшин / Animegroup'' с вставками одноголосого ''Digital Force'')
Аудио #02: AC3, 2 ch, 192 kbps (Русский - Одноголосый ''Digital Force'' с вставками одноголосого ''А. Лапшин / Animegroup'')
Аудио #03: AC3, 2 ch, 192 kbps (Русский - Одноголосый ''Persona99 / Get Smart Group'' с вставками одноголосого ''А. Лапшин / Animegroup'')

MediaInfo

Общее
Уникальный идентификатор : 192696483852616851824521961285714024045 (0x90F7FE2AF54636B60082B2B23D3D966D)
Полное имя : Slayers Excellent\Рубаки - 002 ''Превосходные Рубаки - 02 ''Пугающее будущее'''' (The Slayers - 002 ''Slayers Excellent - 02 ''A Frightening Future'''').mkv
Формат : Matroska
Версия формата : Version 4
Размер файла : 349 Мбайт
Продолжительность : 28 м. 0 с.
Общий поток : 1 744 Кбит/сек
Дата кодирования : UTC 2021-01-22 22:39:54
Программа кодирования : mkvmerge v52.0.0 ('Secret For The Mad') 64-bit
Библиотека кодирования : libebml v1.4.1 + libmatroska v1.6.2
Attachments : Лог кодирования.log
Видео
Идентификатор : 1
Формат : AVC
Формат/Информация : Advanced Video Codec
Профиль формата : High@L4.1
Настройки формата : CABAC / 12 Ref Frames
Параметр CABAC формата : Да
Параметр RefFrames формата : 12 кадров
Идентификатор кодека : V_MPEG4/ISO/AVC
Продолжительность : 28 м. 0 с.
Битрейт : 1 166 Кбит/сек
Ширина : 720 пикселей
Высота : 516 пикселей
Соотношение сторон : 1,395
Режим частоты кадров : Постоянный
Частота кадров : 23,976 (24000/1001) кадра/сек
Цветовое пространство : YUV
Субдискретизация насыщенности : 4:2:0
Битовая глубина : 8 бит
Тип развёртки : Прогрессивная
Бит/(Пиксели*Кадры) : 0.131
Размер потока : 227 Мбайт (65%)
Заголовок : Рубаки - 002 ''Превосходные Рубаки - 02 ''Пугающее будущее'''' (The Slayers - 002 ''Slayers Excellent - 02 ''A Frightening Future'''')
Библиотека кодирования : x264 core 157 r2969 d4099dd
Настройки программы : cabac=1 / ref=12 / deblock=1:-1:-1 / analyse=0x3:0x133 / me=umh / subme=11 / psy=1 / psy_rd=1.00:0.15 / mixed_ref=1 / me_range=64 / chroma_me=1 / trellis=2 / 8x8dct=1 / cqm=0 / deadzone=21,11 / fast_pskip=0 / chroma_qp_offset=-3 / threads=6 / lookahead_threads=1 / sliced_threads=0 / nr=0 / decimate=0 / interlaced=0 / bluray_compat=0 / constrained_intra=0 / bframes=16 / b_pyramid=2 / b_adapt=2 / b_bias=0 / direct=3 / weightb=1 / open_gop=0 / weightp=2 / keyint=240 / keyint_min=23 / scenecut=40 / intra_refresh=0 / rc_lookahead=60 / rc=2pass / mbtree=0 / bitrate=1166 / ratetol=1.0 / qcomp=0.60 / qpmin=0 / qpmax=69 / qpstep=4 / cplxblur=20.0 / qblur=0.5 / vbv_maxrate=50000 / vbv_bufsize=62500 / nal_hrd=none / filler=0 / ip_ratio=1.40 / pb_ratio=1.30 / aq=1:1.00
Язык : Japanese
Default : Да
Forced : Нет
Аудио #1
Идентификатор : 2
Формат : AC-3
Формат/Информация : Audio Coding 3
Коммерческое название : Dolby Digital
Идентификатор кодека : A_AC3
Продолжительность : 28 м. 0 с.
Вид битрейта : Постоянный
Битрейт : 192 Кбит/сек
Каналы : 2 канала
Channel layout : L R
Частота : 48,0 КГц
Частота кадров : 31,250 кадров/сек (1536 SPF)
Метод сжатия : С потерями
Размер потока : 38,5 Мбайт (11%)
Заголовок : Одноголосый ''А. Лапшин / Animegroup'' с вставками одноголосого ''Digital Force'' (AC-3, Постоянный, 192 Кбит/сек, 2 канала, 48,0 КГц)
Язык : Russian
Service kind : Complete Main
Default : Да
Forced : Нет
Аудио #2
Идентификатор : 3
Формат : AC-3
Формат/Информация : Audio Coding 3
Коммерческое название : Dolby Digital
Идентификатор кодека : A_AC3
Продолжительность : 28 м. 0 с.
Вид битрейта : Постоянный
Битрейт : 192 Кбит/сек
Каналы : 2 канала
Channel layout : L R
Частота : 48,0 КГц
Частота кадров : 31,250 кадров/сек (1536 SPF)
Метод сжатия : С потерями
Размер потока : 38,5 Мбайт (11%)
Заголовок : Одноголосый ''Digital Force'' с вставками одноголосого ''А. Лапшин / Animegroup'' (AC-3, Постоянный, 192 Кбит/сек, 2 канала, 48,0 КГц)
Язык : Russian
Service kind : Complete Main
Default : Нет
Forced : Нет
Аудио #3
Идентификатор : 4
Формат : AC-3
Формат/Информация : Audio Coding 3
Коммерческое название : Dolby Digital
Идентификатор кодека : A_AC3
Продолжительность : 28 м. 0 с.
Вид битрейта : Постоянный
Битрейт : 192 Кбит/сек
Каналы : 2 канала
Channel layout : L R
Частота : 48,0 КГц
Частота кадров : 31,250 кадров/сек (1536 SPF)
Метод сжатия : С потерями
Размер потока : 38,5 Мбайт (11%)
Заголовок : Одноголосый ''Persona99 / Get Smart Group'' с вставками одноголосого ''А. Лапшин / Animegroup'' (AC-3, Постоянный, 192 Кбит/сек, 2 канала, 48,0 КГц)
Язык : Russian
Service kind : Complete Main
Default : Нет
Forced : Нет
Скриншоты:
Если надо вернуться на сидирование раздачи пишите в ЛС.
По вопросам изготовления рипов под заказ обращайтесь в ЛС.

Законодатель моды Лина Чан (Lina-Chan’s Lovely Makeover Operation) (1998)

Продолжительность: 00:28:13
Качество видео: BDRip
Перевод: Одноголосый
Субтитры: Отсутствуют
Видео: AVC/H.264, 720x516, ~1153 kbps, 23,976 fps
Аудио #01: AC3, 2 ch, 192 kbps (Русский - Одноголосый ''А. Лапшин / Animegroup'' с вставками одноголосого ''Persona99 / Get Smart Group'')
Аудио #02: AC3, 2 ch, 192 kbps (Русский - Одноголосый ''Digital Force'' с вставками одноголосого ''Persona99 / Get Smart Group'')
Аудио #03: AC3, 2 ch, 192 kbps (Русский - Одноголосый ''Persona99 / Get Smart Group'' с вставками одноголосого ''Digital Force'')

MediaInfo

Общее
Уникальный идентификатор : 270915791834303217366676152982157083734 (0xCBD07BCC8FAB77E7AFC7493830E34456)
Полное имя : Slayers Excellent\Рубаки - 003 ''Превосходные Рубаки - 03 ''Законодатель моды Лина Чан'''' (The Slayers - 003 ''Slayers Excellent - 03 ''Lina-Chan’s Lovely Makeover Operation'''').mkv
Формат : Matroska
Версия формата : Version 4
Размер файла : 349 Мбайт
Продолжительность : 28 м. 12 с.
Общий поток : 1 731 Кбит/сек
Дата кодирования : UTC 2021-01-24 16:30:50
Программа кодирования : mkvmerge v52.0.0 ('Secret For The Mad') 64-bit
Библиотека кодирования : libebml v1.4.1 + libmatroska v1.6.2
Attachments : Лог кодирования.log
Видео
Идентификатор : 1
Формат : AVC
Формат/Информация : Advanced Video Codec
Профиль формата : High@L4.1
Настройки формата : CABAC / 12 Ref Frames
Параметр CABAC формата : Да
Параметр RefFrames формата : 12 кадров
Идентификатор кодека : V_MPEG4/ISO/AVC
Продолжительность : 28 м. 12 с.
Битрейт : 1 153 Кбит/сек
Ширина : 720 пикселей
Высота : 516 пикселей
Соотношение сторон : 1,395
Режим частоты кадров : Постоянный
Частота кадров : 23,976 (24000/1001) кадра/сек
Цветовое пространство : YUV
Субдискретизация насыщенности : 4:2:0
Битовая глубина : 8 бит
Тип развёртки : Прогрессивная
Бит/(Пиксели*Кадры) : 0.129
Размер потока : 226 Мбайт (65%)
Заголовок : Рубаки - 003 ''Превосходные Рубаки - 03 ''Законодатель моды Лина Чан'''' (The Slayers - 003 ''Slayers Excellent - 03 ''Lina-Chan’s Lovely Makeover Operation'''')
Библиотека кодирования : x264 core 157 r2969 d4099dd
Настройки программы : cabac=1 / ref=12 / deblock=1:-1:-1 / analyse=0x3:0x133 / me=umh / subme=11 / psy=1 / psy_rd=1.00:0.15 / mixed_ref=1 / me_range=64 / chroma_me=1 / trellis=2 / 8x8dct=1 / cqm=0 / deadzone=21,11 / fast_pskip=0 / chroma_qp_offset=-3 / threads=6 / lookahead_threads=1 / sliced_threads=0 / nr=0 / decimate=0 / interlaced=0 / bluray_compat=0 / constrained_intra=0 / bframes=16 / b_pyramid=2 / b_adapt=2 / b_bias=0 / direct=3 / weightb=1 / open_gop=0 / weightp=2 / keyint=240 / keyint_min=23 / scenecut=40 / intra_refresh=0 / rc_lookahead=60 / rc=2pass / mbtree=0 / bitrate=1153 / ratetol=1.0 / qcomp=0.60 / qpmin=0 / qpmax=69 / qpstep=4 / cplxblur=20.0 / qblur=0.5 / vbv_maxrate=50000 / vbv_bufsize=62500 / nal_hrd=none / filler=0 / ip_ratio=1.40 / pb_ratio=1.30 / aq=1:1.00
Язык : Japanese
Default : Да
Forced : Нет
Аудио #1
Идентификатор : 2
Формат : AC-3
Формат/Информация : Audio Coding 3
Коммерческое название : Dolby Digital
Идентификатор кодека : A_AC3
Продолжительность : 28 м. 12 с.
Вид битрейта : Постоянный
Битрейт : 192 Кбит/сек
Каналы : 2 канала
Channel layout : L R
Частота : 48,0 КГц
Частота кадров : 31,250 кадров/сек (1536 SPF)
Метод сжатия : С потерями
Размер потока : 38,7 Мбайт (11%)
Заголовок : Одноголосый ''А. Лапшин / Animegroup'' с вставками одноголосого ''Persona99 / Get Smart Group'' (AC-3, Постоянный, 192 Кбит/сек, 2 канала, 48,0 КГц)
Язык : Russian
Service kind : Complete Main
Default : Да
Forced : Нет
Аудио #2
Идентификатор : 3
Формат : AC-3
Формат/Информация : Audio Coding 3
Коммерческое название : Dolby Digital
Идентификатор кодека : A_AC3
Продолжительность : 28 м. 12 с.
Вид битрейта : Постоянный
Битрейт : 192 Кбит/сек
Каналы : 2 канала
Channel layout : L R
Частота : 48,0 КГц
Частота кадров : 31,250 кадров/сек (1536 SPF)
Метод сжатия : С потерями
Размер потока : 38,7 Мбайт (11%)
Заголовок : Одноголосый ''Digital Force'' с вставками одноголосого ''Persona99 / Get Smart Group'' (AC-3, Постоянный, 192 Кбит/сек, 2 канала, 48,0 КГц)
Язык : Russian
Service kind : Complete Main
Default : Нет
Forced : Нет
Аудио #3
Идентификатор : 4
Формат : AC-3
Формат/Информация : Audio Coding 3
Коммерческое название : Dolby Digital
Идентификатор кодека : A_AC3
Продолжительность : 28 м. 12 с.
Вид битрейта : Постоянный
Битрейт : 192 Кбит/сек
Каналы : 2 канала
Channel layout : L R
Частота : 48,0 КГц
Частота кадров : 31,250 кадров/сек (1536 SPF)
Метод сжатия : С потерями
Размер потока : 38,7 Мбайт (11%)
Заголовок : Одноголосый ''Persona99 / Get Smart Group'' с вставками одноголосого ''Digital Force'' (AC-3, Постоянный, 192 Кбит/сек, 2 канала, 48,0 КГц)
Язык : Russian
Service kind : Complete Main
Default : Нет
Forced : Нет
Скриншоты:
Если надо вернуться на сидирование раздачи пишите в ЛС.
По вопросам изготовления рипов под заказ обращайтесь в ЛС.
Скриншоты:
Если надо вернуться на сидирование раздачи пишите в ЛС.
По вопросам изготовления рипов под заказ обращайтесь в ЛС.
[Профиль] [ЛС]
Показать сообщения:    
Ответить на тему

Текущее время: 24-Май 08:18

Часовой пояс: UTC + 3



Вы не можете начинать темы
Вы не можете отвечать на сообщения
Вы не можете редактировать свои сообщения
Вы не можете удалять свои сообщения
Вы не можете голосовать в опросах
Вы не можете прикреплять файлы к сообщениям
Вы не можете скачивать файлы