Оптом дешевле / Cheaper by the Dozen (2003) WEB-DLRip [H.264]

Ответить на тему
 
Автор Сообщение

MAG3131 ®

Пол: Мужской

Стаж: 52 года

Сообщений: 108

Откуда: Санкт-Петербург

Создавать темы 29-Июл-2021 18:06

[Цитировать]

Оптом дешевле / Cheaper by the Dozen (2003) WEB-DLRip [H.264] - Производство: США / 20th Century Fox Film Corporation, Robert Simonds Productions
Жанр: комедия, семейный
Режиссер: Шон Леви
Продюсер: Майкл Барнатан, Бен Майрон, Роберт Симондз
Актеры: Стив Мартин, Бонни Хант, Пайпер Перабо, Том Уэллинг, Хилари Дафф, Кевин Шмидт, Элисон Стоунер, Джейкоб Смит, Лилиана Муми, Морган Йорк
Описание:
Том и Кейт вместе еще со школы. Они всегда мечтали о большой семье и успешной карьере. Но после рождения первых детей мысли о карьере ушли на второй план, и все семейство переехало в тихий и спокойный Иллинойс. Когда детей стало уже двенадцать, Тому предложили работу его мечты - тренировать футбольную команду. Кейт тоже повезло - ее мемуары наконец-то опубликуют. Она едет на презентацию книги в Нью-Йорк, оставляя Тома следить за целой оравой детей.

Возраст: 12+ (зрителям, достигшим 12 лет)
Рейтинг MPAA: PG (рекомендуется присутствие родителей)
Релиз от: MAG3131
Продолжительность: 01:38:55
Качество видео: WEB-DLRip
Перевод: Дублированный
Субтитры: Отсутствуют
Видео: AVC/H.264, 720x408, ~1784 kbps, 23,976 fps
Аудио: AC3, 2 ch, 192 kbps (Русский - Дублированный ''Невафильм'')

MediaInfo

Общее
Уникальный идентификатор : 19106965560402305038365108722522870024 (0xE5FDE225E3B2EB0D1FBEE9585D75108)
Полное имя : Оптом дешевле - 01 (2003 год) (Cheaper By The Dozen - 01) (2003 Year).mkv
Формат : Matroska
Версия формата : Version 4
Размер файла : 1,37 Гбайт
Продолжительность : 1 ч. 38 м.
Общий поток : 1 976 Кбит/сек
Дата кодирования : UTC 2021-07-29 14:12:33
Программа кодирования : mkvmerge v59.0.0 ('Shining Star') 64-bit
Библиотека кодирования : libebml v1.4.2 + libmatroska v1.6.4
Attachments : Лог кодирования.log
Видео
Идентификатор : 1
Формат : AVC
Формат/Информация : Advanced Video Codec
Профиль формата : High@L4.1
Настройки формата : CABAC / 12 Ref Frames
Параметр CABAC формата : Да
Параметр RefFrames формата : 12 кадров
Идентификатор кодека : V_MPEG4/ISO/AVC
Продолжительность : 1 ч. 38 м.
Битрейт : 1 784 Кбит/сек
Ширина : 720 пикселей
Высота : 408 пикселей
Соотношение сторон : 16:9
Режим частоты кадров : Постоянный
Частота кадров : 23,976 (24000/1001) кадра/сек
Цветовое пространство : YUV
Субдискретизация насыщенности : 4:2:0
Битовая глубина : 8 бит
Тип развёртки : Прогрессивная
Бит/(Пиксели*Кадры) : 0.253
Размер потока : 1,21 Гбайт (88%)
Заголовок : Оптом дешевле - 01 (2003 год) (Cheaper By The Dozen - 01) (2003 Year)
Библиотека кодирования : x264 core 157 r2969 d4099dd
Настройки программы : cabac=1 / ref=12 / deblock=1:-1:-1 / analyse=0x3:0x133 / me=umh / subme=11 / psy=1 / psy_rd=1.00:0.15 / mixed_ref=1 / me_range=64 / chroma_me=1 / trellis=2 / 8x8dct=1 / cqm=0 / deadzone=21,11 / fast_pskip=0 / chroma_qp_offset=-3 / threads=12 / lookahead_threads=3 / sliced_threads=0 / nr=0 / decimate=0 / interlaced=0 / bluray_compat=0 / constrained_intra=0 / bframes=16 / b_pyramid=2 / b_adapt=2 / b_bias=0 / direct=3 / weightb=1 / open_gop=0 / weightp=2 / keyint=240 / keyint_min=23 / scenecut=40 / intra_refresh=0 / rc_lookahead=60 / rc=2pass / mbtree=0 / bitrate=1784 / ratetol=1.0 / qcomp=0.60 / qpmin=0 / qpmax=69 / qpstep=4 / cplxblur=20.0 / qblur=0.5 / vbv_maxrate=50000 / vbv_bufsize=62500 / nal_hrd=none / filler=0 / ip_ratio=1.40 / pb_ratio=1.30 / aq=1:1.00
Язык : English
Default : Да
Forced : Нет
Аудио
Идентификатор : 2
Формат : AC-3
Формат/Информация : Audio Coding 3
Коммерческое название : Dolby Digital
Идентификатор кодека : A_AC3
Продолжительность : 1 ч. 38 м.
Вид битрейта : Постоянный
Битрейт : 192 Кбит/сек
Каналы : 2 канала
Channel layout : L R
Частота : 48,0 КГц
Частота кадров : 31,250 кадров/сек (1536 SPF)
Метод сжатия : С потерями
Размер потока : 136 Мбайт (10%)
Заголовок : Дублированный ''Невафильм'' (AC-3, Постоянный, 192 Кбит/сек, 2 канала, 48,0 КГц)
Язык : Russian
Service kind : Complete Main
Default : Да
Forced : Нет
Меню
00:00:00.000 : :01. Twelve is Our Number (Main Titles)
00:05:03.767 : :02. Managing Chaos
00:08:42.668 : :03. Breakfast with Beans
00:12:46.135 : :04. Shake's Offer
00:16:03.302 : :05. We're Not Moving!
00:19:42.970 : :06. Moving Day
00:21:14.804 : :07. A New Home
00:23:37.705 : :08. The Neighbors
00:26:51.472 : :09. Day 14 on the Alien Planet
00:29:01.839 : :10. Kate's Big News
00:31:27.640 : :11. Help from Nora
00:33:55.342 : :12. Heads Up, Hank
00:41:37.375 : :13. Funny, But Wrong
00:44:41.042 : :14. First Day of School
00:46:50.976 : :15. Dad in Charge
00:51:37.377 : :16. Looking for Backup
00:53:46.278 : :17. Missing Midland
00:58:33.712 : :18. Coaching Two Teams
01:04:02.479 : :19. Panic at the Party
01:07:35.114 : :20. The Tour's Over
01:12:03.514 : :21. Charlie's Choice
01:15:22.814 : :22. An Ultimatum
01:18:01.981 : :23. One Big, Happy Family
01:19:37.648 : :24. Looking for Mark
01:26:59.316 : :25. A Different Dream
01:28:10.650 : :26. We Love the Coach
01:30:23.650 : :27. Twelve is Still Our Number
01:31:59.618 : :28. End Titles
Скриншоты:
Если надо вернуться на сидирование раздачи пишите в ЛС.
По вопросам изготовления рипов под заказ обращайтесь в ЛС.
[Профиль] [ЛС]
Показать сообщения:    
Ответить на тему

Текущее время: 24-Май 08:34

Часовой пояс: UTC + 3



Вы не можете начинать темы
Вы не можете отвечать на сообщения
Вы не можете редактировать свои сообщения
Вы не можете удалять свои сообщения
Вы не можете голосовать в опросах
Вы не можете прикреплять файлы к сообщениям
Вы не можете скачивать файлы