Оптом дешевле 2 / Cheaper by the Dozen 2 (2005) BDRip [H.264]

Ответить на тему
 
Автор Сообщение

MAG3131 ®

Пол: Мужской

Стаж: 52 года

Сообщений: 108

Откуда: Санкт-Петербург

Создавать темы 01-Авг-2021 16:13

[Цитировать]

Оптом дешевле 2 / Cheaper by the Dozen 2 (2005) BDRip [H.264] - Производство: США, Канада / 20th Century Fox Film Corporation, 21 Laps Entertainment, Dozen Canada Productions
Жанр: комедия, приключения, семейный
Режиссер: Адам Шенкман
Продюсер: Шон Леви, Бен Майрон, Дженнифер Джибгот
Актеры: Стив Мартин, Юджин Леви, Бонни Хант, Том Уэллинг, Пайпер Перабо, Кармен Электра, Джейми Кинг, Хилари Дафф, Тэйлор Лотнер, Элисон Стоунер
Описание:
Семья Бейкеров едет на отдыхать на озеро, где они встречают знакомую семью и между отцами начинается соперничество, подогреваемое подростковыми комплексами. Вскоре главы семей вовлекают в конфликт детей и жён.

Возраст: 12+ (зрителям, достигшим 12 лет)
Рейтинг MPAA: PG (рекомендуется присутствие родителей)
Релиз от: MAG3131
Продолжительность: 01:33:54
Качество видео: BDRip
Перевод: Дублированный
Субтитры: Отсутствуют
Видео: AVC/H.264, 720x306, ~2931 kbps, 23,976 fps
Аудио: AC3, 2 ch, 192 kbps (Русский - Дублированный ''Невафильм'')

MediaInfo

Общее
Уникальный идентификатор : 163228588545290525243723980597409813498 (0x7ACCAEC1E273887ECA05DCD338EF13FA)
Полное имя : Оптом дешевле - 02 (Cheaper By The Dozen - 02).mkv
Формат : Matroska
Версия формата : Version 4
Размер файла : 2,05 Гбайт
Продолжительность : 1 ч. 33 м.
Общий поток : 3 124 Кбит/сек
Дата кодирования : UTC 2021-08-01 12:40:44
Программа кодирования : mkvmerge v60.0.0 ('Are We Copies?') 64-bit
Библиотека кодирования : libebml v1.4.2 + libmatroska v1.6.4
Attachments : Лог кодирования.log
Видео
Идентификатор : 1
Формат : AVC
Формат/Информация : Advanced Video Codec
Профиль формата : High@L4.1
Настройки формата : CABAC / 12 Ref Frames
Параметр CABAC формата : Да
Параметр RefFrames формата : 12 кадров
Идентификатор кодека : V_MPEG4/ISO/AVC
Продолжительность : 1 ч. 33 м.
Битрейт : 2 931 Кбит/сек
Ширина : 720 пикселей
Высота : 306 пикселей
Соотношение сторон : 2,35:1
Режим частоты кадров : Постоянный
Частота кадров : 23,976 (24000/1001) кадра/сек
Цветовое пространство : YUV
Субдискретизация насыщенности : 4:2:0
Битовая глубина : 8 бит
Тип развёртки : Прогрессивная
Бит/(Пиксели*Кадры) : 0.555
Размер потока : 1,88 Гбайт (92%)
Заголовок : Оптом дешевле - 02 (Cheaper By The Dozen - 02)
Библиотека кодирования : x264 core 157 r2969 d4099dd
Настройки программы : cabac=1 / ref=12 / deblock=1:-1:-1 / analyse=0x3:0x133 / me=umh / subme=11 / psy=1 / psy_rd=1.00:0.15 / mixed_ref=1 / me_range=64 / chroma_me=1 / trellis=2 / 8x8dct=1 / cqm=0 / deadzone=21,11 / fast_pskip=0 / chroma_qp_offset=-3 / threads=10 / lookahead_threads=2 / sliced_threads=0 / nr=0 / decimate=0 / interlaced=0 / bluray_compat=0 / constrained_intra=0 / bframes=16 / b_pyramid=2 / b_adapt=2 / b_bias=0 / direct=3 / weightb=1 / open_gop=0 / weightp=2 / keyint=240 / keyint_min=23 / scenecut=40 / intra_refresh=0 / rc_lookahead=60 / rc=2pass / mbtree=0 / bitrate=2931 / ratetol=1.0 / qcomp=0.60 / qpmin=0 / qpmax=69 / qpstep=4 / cplxblur=20.0 / qblur=0.5 / vbv_maxrate=50000 / vbv_bufsize=62500 / nal_hrd=none / filler=0 / ip_ratio=1.40 / pb_ratio=1.30 / aq=1:1.00
Язык : English
Default : Да
Forced : Нет
Аудио
Идентификатор : 2
Формат : AC-3
Формат/Информация : Audio Coding 3
Коммерческое название : Dolby Digital
Идентификатор кодека : A_AC3
Продолжительность : 1 ч. 33 м.
Вид битрейта : Постоянный
Битрейт : 192 Кбит/сек
Каналы : 2 канала
Channel layout : L R
Частота : 48,0 КГц
Частота кадров : 31,250 кадров/сек (1536 SPF)
Метод сжатия : С потерями
Размер потока : 129 Мбайт (6%)
Заголовок : Дублированный ''Невафильм'' (AC-3, Постоянный, 192 Кбит/сек, 2 канала, 48,0 КГц)
Язык : Russian
Service kind : Complete Main
Default : Да
Forced : Нет
Меню
00:00:00.000 : :Глава 01
00:02:53.381 : :Глава 02
00:06:18.336 : :Глава 03
00:09:18.599 : :Глава 04
00:11:50.209 : :Глава 05
00:13:22.718 : :Глава 06
00:18:37.366 : :Глава 07
00:21:30.706 : :Глава 08
00:23:46.716 : :Глава 09
00:26:13.154 : :Глава 10
00:31:16.207 : :Глава 11
00:36:30.980 : :Глава 12
00:41:37.745 : :Глава 13
00:45:24.805 : :Глава 14
00:50:37.159 : :Глава 15
00:54:07.494 : :Глава 16
00:58:38.848 : :Глава 17
01:03:25.760 : :Глава 18
01:07:59.033 : :Глава 19
01:10:01.155 : :Глава 20
01:12:30.095 : :Глава 21
01:14:41.393 : :Глава 22
01:17:39.279 : :Глава 23
01:19:55.791 : :Глава 24
01:23:48.857 : :Глава 25
01:25:01.596 : :Глава 26
01:27:22.862 : :Глава 27
01:28:53.494 : :Глава 28
Скриншоты:
Если надо вернуться на сидирование раздачи пишите в ЛС.
По вопросам изготовления рипов под заказ обращайтесь в ЛС.
[Профиль] [ЛС]
Показать сообщения:    
Ответить на тему

Текущее время: 24-Май 09:27

Часовой пояс: UTC + 3



Вы не можете начинать темы
Вы не можете отвечать на сообщения
Вы не можете редактировать свои сообщения
Вы не можете удалять свои сообщения
Вы не можете голосовать в опросах
Вы не можете прикреплять файлы к сообщениям
Вы не можете скачивать файлы