Последний богатырь (2017) BDRip [H.264]

Ответить на тему
 
Автор Сообщение

MAG3131 ®

Пол: Мужской

Стаж: 52 года

Сообщений: 108

Откуда: Санкт-Петербург

Создавать темы 03-Авг-2021 04:03

[Цитировать]

Последний богатырь (2017) BDRip [H.264] - Производство: Россия / Кинослово, Walt Disney Pictures, Yellow, Black & White
Жанр: комедия, фэнтези, приключения, семейный
Режиссер: Дмитрий Дьяченко
Продюсер: Марина Жигалова-Озкан, Владимир Верещагин, Эдуард Илоян
Актеры: Виктор Хориняк, Мила Сивацкая, Екатерина Вилкова, Елена Яковлева, Константин Лавроненко, Евгений Дятлов, Александр Семчев, Сергей Бурунов, Александр Кухаренко, Марина Калецкая
Описание:
Обычный парень Иван по воле случая переносится из современной Москвы в фантастическую страну Белогорье. В этом параллельном мире живут герои русских сказок, волшебство — неотъемлемая часть быта, а спорные вопросы решаются битвой на богатырских мечах. Неожиданно Иван оказывается в эпицентре борьбы светлых и тёмных сил, вот только непонятно, почему главная роль в происходящих событиях, по всеобщему мнению, уготована именно ему.

Возраст: 12+ (зрителям, достигшим 12 лет)
Рейтинг MPAA: этот продукт не был классифицирован
Релиз от: MAG3131
Продолжительность: 01:53:58
Качество видео: BDRip
Перевод: Не требуется
Субтитры: Отсутствуют
Видео: AVC/H.264, 720x304, ~1522 kbps, 24 fps
Аудио: AC3, 2 ch, 192 kbps

MediaInfo

Общее
Уникальный идентификатор : 171780905685293546357671639518342383305 (0x813BCC8C232AFD6C546EEF58E89D86C9)
Полное имя : Последний богатырь - 01 (The Last Warrior - 01).mkv
Формат : Matroska
Версия формата : Version 4
Размер файла : 1,36 Гбайт
Продолжительность : 1 ч. 53 м.
Общий поток : 1 711 Кбит/сек
Дата кодирования : UTC 2021-08-03 00:44:35
Программа кодирования : mkvmerge v60.0.0 ('Are We Copies?') 64-bit
Библиотека кодирования : libebml v1.4.2 + libmatroska v1.6.4
Attachments : Лог кодирования.log
Видео
Идентификатор : 1
Формат : AVC
Формат/Информация : Advanced Video Codec
Профиль формата : High@L4.1
Настройки формата : CABAC / 12 Ref Frames
Параметр CABAC формата : Да
Параметр RefFrames формата : 12 кадров
Идентификатор кодека : V_MPEG4/ISO/AVC
Продолжительность : 1 ч. 53 м.
Битрейт : 1 522 Кбит/сек
Ширина : 720 пикселей
Высота : 304 пикселя
Соотношение сторон : 2,35:1
Режим частоты кадров : Постоянный
Частота кадров : 24,000 кадра/сек
Цветовое пространство : YUV
Субдискретизация насыщенности : 4:2:0
Битовая глубина : 8 бит
Тип развёртки : Прогрессивная
Бит/(Пиксели*Кадры) : 0.290
Размер потока : 1,18 Гбайт (87%)
Заголовок : Последний богатырь - 01 (The Last Warrior - 01)
Библиотека кодирования : x264 core 157 r2969 d4099dd
Настройки программы : cabac=1 / ref=12 / deblock=1:-1:-1 / analyse=0x3:0x133 / me=umh / subme=11 / psy=1 / psy_rd=1.00:0.15 / mixed_ref=1 / me_range=64 / chroma_me=1 / trellis=2 / 8x8dct=1 / cqm=0 / deadzone=21,11 / fast_pskip=0 / chroma_qp_offset=-3 / threads=9 / lookahead_threads=2 / sliced_threads=0 / nr=0 / decimate=0 / interlaced=0 / bluray_compat=0 / constrained_intra=0 / bframes=16 / b_pyramid=2 / b_adapt=2 / b_bias=0 / direct=3 / weightb=1 / open_gop=0 / weightp=2 / keyint=240 / keyint_min=24 / scenecut=40 / intra_refresh=0 / rc_lookahead=60 / rc=2pass / mbtree=0 / bitrate=1522 / ratetol=1.0 / qcomp=0.60 / qpmin=0 / qpmax=69 / qpstep=4 / cplxblur=20.0 / qblur=0.5 / vbv_maxrate=50000 / vbv_bufsize=62500 / nal_hrd=none / filler=0 / ip_ratio=1.40 / pb_ratio=1.30 / aq=1:1.00
Язык : Russian
Default : Да
Forced : Нет
Аудио
Идентификатор : 2
Формат : AC-3
Формат/Информация : Audio Coding 3
Коммерческое название : Dolby Digital
Идентификатор кодека : A_AC3
Продолжительность : 1 ч. 53 м.
Вид битрейта : Постоянный
Битрейт : 192 Кбит/сек
Каналы : 2 канала
Channel layout : L R
Частота : 48,0 КГц
Частота кадров : 31,250 кадров/сек (1536 SPF)
Метод сжатия : С потерями
Размер потока : 157 Мбайт (11%)
Заголовок : Оригинал (AC-3, Постоянный, 192 Кбит/сек, 2 канала, 48,0 КГц)
Язык : Russian
Service kind : Complete Main
Default : Да
Forced : Нет
Меню
00:00:00.000 : :Глава 01
00:14:59.000 : :Глава 02
00:32:41.000 : :Глава 03
00:50:55.458 : :Глава 04
01:06:16.458 : :Глава 05
01:24:54.458 : :Глава 06
01:38:13.000 : :Глава 07
Скриншоты:
Если надо вернуться на сидирование раздачи пишите в ЛС.
По вопросам изготовления рипов под заказ обращайтесь в ЛС.
[Профиль] [ЛС]
Показать сообщения:    
Ответить на тему

Текущее время: 24-Май 09:32

Часовой пояс: UTC + 3



Вы не можете начинать темы
Вы не можете отвечать на сообщения
Вы не можете редактировать свои сообщения
Вы не можете удалять свои сообщения
Вы не можете голосовать в опросах
Вы не можете прикреплять файлы к сообщениям
Вы не можете скачивать файлы