Пассажиры / Passengers (2008) BDRip [H.264]

Ответить на тему
 
Автор Сообщение

MAG3131 ®

Пол: Мужской

Стаж: 52 года

Сообщений: 108

Откуда: Санкт-Петербург

Создавать темы 06-Авг-2021 23:53

[Цитировать]

Пассажиры / Passengers (2008) BDRip [H.264] - Производство: США, Канада / Intuition Films, Mandate Pictures, Persistent Entertainment, Senator International, TriStar Pictures
Жанр: триллер
Режиссер: Родриго Гарсия
Продюсер: Джули Линн, Джудд Пэйн, Мэттью А. Родс
Актеры: Энн Хэтэуэй, Патрик Уилсон, Андре Брауэр, Дайэнн Уист, Дэвид Морс, Уильям Б. Дэвис, Райан Роббинс, Клеа ДюВалл, Дон Томпсон, Эндрю Вилер
Описание:
События разворачиваются вокруг женщины-психиатра, помогающей шести уцелевшим в авиакатастрофе пассажирам справиться с пережитым шоком. С одним из пациентов у доктора завязывается роман, но любовная идиллия чахнет на корню, когда выжившие начинают бесследно исчезать. Героиня подозревает заговор и отправляется на поиски правды.

Возраст: 16+ (зрителям, достигшим 16 лет)
Рейтинг MPAA: PG-13 (детям до 13 лет просмотр нежелателен)
Релиз от: MAG3131
Продолжительность: 01:32:39
Качество видео: BDRip
Перевод: Многоголосый
Субтитры: Отсутствуют
Видео: AVC/H.264, 720x300, ~861 kbps, 23,976 fps
Аудио: AC3, 2 ch, 192 kbps (Русский - Многоголосый ''Новамедиа / West'')

MediaInfo

Общее
Уникальный идентификатор : 165391663216911045111435372440988175276 (0x7C6D469294B088B403A8B4E0CF944BAC)
Полное имя : Пассажиры (2008 год) (Passengers) (2008 Year).mkv
Формат : Matroska
Версия формата : Version 4
Размер файла : 697 Мбайт
Продолжительность : 1 ч. 32 м.
Общий поток : 1 052 Кбит/сек
Дата кодирования : UTC 2021-08-06 20:02:45
Программа кодирования : mkvmerge v60.0.0 ('Are We Copies?') 64-bit
Библиотека кодирования : libebml v1.4.2 + libmatroska v1.6.4
Attachments : Лог кодирования.log
Видео
Идентификатор : 1
Формат : AVC
Формат/Информация : Advanced Video Codec
Профиль формата : High@L4.1
Настройки формата : CABAC / 12 Ref Frames
Параметр CABAC формата : Да
Параметр RefFrames формата : 12 кадров
Идентификатор кодека : V_MPEG4/ISO/AVC
Продолжительность : 1 ч. 32 м.
Битрейт : 861 Кбит/сек
Ширина : 720 пикселей
Высота : 300 пикселей
Соотношение сторон : 2,40:1
Режим частоты кадров : Постоянный
Частота кадров : 23,976 (24000/1001) кадра/сек
Цветовое пространство : YUV
Субдискретизация насыщенности : 4:2:0
Битовая глубина : 8 бит
Тип развёртки : Прогрессивная
Бит/(Пиксели*Кадры) : 0.166
Размер потока : 556 Мбайт (80%)
Заголовок : Пассажиры (2008 год) (Passengers) (2008 Year)
Библиотека кодирования : x264 core 157 r2969 d4099dd
Настройки программы : cabac=1 / ref=12 / deblock=1:-1:-1 / analyse=0x3:0x133 / me=umh / subme=11 / psy=1 / psy_rd=1.00:0.15 / mixed_ref=1 / me_range=64 / chroma_me=1 / trellis=2 / 8x8dct=1 / cqm=0 / deadzone=21,11 / fast_pskip=0 / chroma_qp_offset=-3 / threads=9 / lookahead_threads=2 / sliced_threads=0 / nr=0 / decimate=0 / interlaced=0 / bluray_compat=0 / constrained_intra=0 / bframes=16 / b_pyramid=2 / b_adapt=2 / b_bias=0 / direct=3 / weightb=1 / open_gop=0 / weightp=2 / keyint=240 / keyint_min=23 / scenecut=40 / intra_refresh=0 / rc_lookahead=60 / rc=2pass / mbtree=0 / bitrate=861 / ratetol=1.0 / qcomp=0.60 / qpmin=0 / qpmax=69 / qpstep=4 / cplxblur=20.0 / qblur=0.5 / vbv_maxrate=50000 / vbv_bufsize=62500 / nal_hrd=none / filler=0 / ip_ratio=1.40 / pb_ratio=1.30 / aq=1:1.00
Язык : English
Default : Да
Forced : Нет
Аудио
Идентификатор : 2
Формат : AC-3
Формат/Информация : Audio Coding 3
Коммерческое название : Dolby Digital
Идентификатор кодека : A_AC3
Продолжительность : 1 ч. 32 м.
Вид битрейта : Постоянный
Битрейт : 192 Кбит/сек
Каналы : 2 канала
Channel layout : L R
Частота : 48,0 КГц
Частота кадров : 31,250 кадров/сек (1536 SPF)
Метод сжатия : С потерями
Размер потока : 127 Мбайт (18%)
Заголовок : Многоголосый ''Новамедиа / West'' (AC-3, Постоянный, 192 Кбит/сек, 2 канала, 48,0 КГц)
Язык : Russian
Service kind : Complete Main
Default : Да
Forced : Нет
Меню
00:00:00.000 : :Глава 01
00:06:43.320 : :Глава 02
00:12:19.405 : :Глава 03
00:17:43.062 : :Глава 04
00:21:53.437 : :Глава 05
00:25:59.892 : :Глава 06
00:30:40.672 : :Глава 07
00:37:47.682 : :Глава 08
00:43:26.062 : :Глава 09
00:47:44.403 : :Глава 10
00:54:56.084 : :Глава 11
01:01:38.111 : :Глава 12
01:07:06.147 : :Глава 13
01:11:04.218 : :Глава 14
01:18:04.513 : :Глава 15
01:25:08.353 : :Глава 16
Скриншоты:
Если надо вернуться на сидирование раздачи пишите в ЛС.
По вопросам изготовления рипов под заказ обращайтесь в ЛС.
[Профиль] [ЛС]
Показать сообщения:    
Ответить на тему

Текущее время: 24-Май 08:58

Часовой пояс: UTC + 3



Вы не можете начинать темы
Вы не можете отвечать на сообщения
Вы не можете редактировать свои сообщения
Вы не можете удалять свои сообщения
Вы не можете голосовать в опросах
Вы не можете прикреплять файлы к сообщениям
Вы не можете скачивать файлы