Флинтстоуны в Рок-Вегасе / The Flintstones in Viva Rock Vegas (2000) BDRip [H.264]

Ответить на тему
 
Автор Сообщение

MAG3131 ®

Пол: Мужской

Стаж: 52 года

Сообщений: 108

Откуда: Санкт-Петербург

Создавать темы 07-Авг-2021 23:19

[Цитировать]

Флинтстоуны в Рок-Вегасе / The Flintstones in Viva Rock Vegas (2000) BDRip [H.264] - Производство: США / Amblin Entertainment, Hanna-Barbera Productions, Universal Pictures
Жанр: фантастика, мелодрама, комедия, семейный
Режиссер: Брайан Левант
Продюсер: Брюс Коэн, Джозеф Барбера, Барт Браун
Актеры: Марк Эдди, Стивен Болдуин, Кристен Джонстон, Джейн Краковски, Джоан Коллинз, Томас Гибсон, Алан Камминг, Харви Кормен, Алекс Менесес, Джон Тейлор
Описание:
Фред Флинстоун, чудный динозаврик Дино и забавный зеленый инопланетянин по имени Газу решают отправиться в столицу развлечений — Рок-Вегас. Старина Фред и его закадычный приятель Барни Рабл познакомились с очаровательными девушками и собираются «оторваться» в этот уикенд «на полную катушку»!

Возраст: 6+ (зрителям, достигшим 6 лет)
Рейтинг MPAA: PG (рекомендуется присутствие родителей)
Релиз от: MAG3131
Продолжительность: 01:30:54
Качество видео: BDRip
Перевод: Двухголосый
Субтитры: Отсутствуют
Видео: AVC/H.264, 720x392, ~3036 kbps, 23,976 fps
Аудио: AC3, 2 ch, 192 kbps (Русский - Двухголосый ''НТВ+'')

MediaInfo

Общее
Уникальный идентификатор : 92257527314496057711376125242742218247 (0x456827482C188803E4A50D0F15111E07)
Полное имя : Флинтстоуны - 01 ''Флинтстоуны в Рок-Вегасе'' (The Flintstones - 01 ''The Flintstones In Viva Rock Vegas'').mkv
Формат : Matroska
Версия формата : Version 4
Размер файла : 2,05 Гбайт
Продолжительность : 1 ч. 30 м.
Общий поток : 3 228 Кбит/сек
Дата кодирования : UTC 2021-08-07 19:45:24
Программа кодирования : mkvmerge v60.0.0 ('Are We Copies?') 64-bit
Библиотека кодирования : libebml v1.4.2 + libmatroska v1.6.4
Attachments : Лог кодирования.log
Видео
Идентификатор : 1
Формат : AVC
Формат/Информация : Advanced Video Codec
Профиль формата : High@L4.1
Настройки формата : CABAC / 12 Ref Frames
Параметр CABAC формата : Да
Параметр RefFrames формата : 12 кадров
Идентификатор кодека : V_MPEG4/ISO/AVC
Продолжительность : 1 ч. 30 м.
Битрейт : 3 036 Кбит/сек
Ширина : 720 пикселей
Высота : 392 пикселя
Соотношение сторон : 1,85:1
Режим частоты кадров : Постоянный
Частота кадров : 23,976 (24000/1001) кадра/сек
Цветовое пространство : YUV
Субдискретизация насыщенности : 4:2:0
Битовая глубина : 8 бит
Тип развёртки : Прогрессивная
Бит/(Пиксели*Кадры) : 0.449
Размер потока : 1,89 Гбайт (92%)
Заголовок : Флинтстоуны - 01 ''Флинтстоуны в Рок-Вегасе'' (The Flintstones - 01 ''The Flintstones In Viva Rock Vegas'')
Библиотека кодирования : x264 core 157 r2969 d4099dd
Настройки программы : cabac=1 / ref=12 / deblock=1:-1:-1 / analyse=0x3:0x133 / me=umh / subme=11 / psy=1 / psy_rd=1.00:0.15 / mixed_ref=1 / me_range=64 / chroma_me=1 / trellis=2 / 8x8dct=1 / cqm=0 / deadzone=21,11 / fast_pskip=0 / chroma_qp_offset=-3 / threads=12 / lookahead_threads=3 / sliced_threads=0 / nr=0 / decimate=0 / interlaced=0 / bluray_compat=0 / constrained_intra=0 / bframes=16 / b_pyramid=2 / b_adapt=2 / b_bias=0 / direct=3 / weightb=1 / open_gop=0 / weightp=2 / keyint=240 / keyint_min=23 / scenecut=40 / intra_refresh=0 / rc_lookahead=60 / rc=2pass / mbtree=0 / bitrate=3036 / ratetol=1.0 / qcomp=0.60 / qpmin=0 / qpmax=69 / qpstep=4 / cplxblur=20.0 / qblur=0.5 / vbv_maxrate=50000 / vbv_bufsize=62500 / nal_hrd=none / filler=0 / ip_ratio=1.40 / pb_ratio=1.30 / aq=1:1.00
Язык : English
Default : Да
Forced : Нет
Аудио
Идентификатор : 2
Формат : AC-3
Формат/Информация : Audio Coding 3
Коммерческое название : Dolby Digital
Идентификатор кодека : A_AC3
Продолжительность : 1 ч. 30 м.
Вид битрейта : Постоянный
Битрейт : 192 Кбит/сек
Каналы : 2 канала
Channel layout : L R
Частота : 48,0 КГц
Частота кадров : 31,250 кадров/сек (1536 SPF)
Метод сжатия : С потерями
Размер потока : 125 Мбайт (6%)
Заголовок : Двухголосый ''НТВ+'' (AC-3, Постоянный, 192 Кбит/сек, 2 канала, 48,0 КГц)
Язык : Russian
Service kind : Complete Main
Default : Да
Forced : Нет
Меню
00:00:00.000 : 00:00:00.000
00:05:06.306 : 00:05:06.306
00:08:44.524 : 00:08:44.524
00:13:04.200 : 00:13:04.200
00:20:24.223 : 00:20:24.223
00:28:39.051 : 00:28:39.051
00:44:06.519 : 00:44:06.519
00:53:56.859 : 00:53:56.859
00:57:09.843 : 00:57:09.843
01:05:09.322 : 01:05:09.322
01:14:13.074 : 01:14:13.074
01:23:56.031 : 01:23:56.031
Скриншоты:
Если надо вернуться на сидирование раздачи пишите в ЛС.
По вопросам изготовления рипов под заказ обращайтесь в ЛС.
[Профиль] [ЛС]
Показать сообщения:    
Ответить на тему

Текущее время: 24-Май 09:51

Часовой пояс: UTC + 3



Вы не можете начинать темы
Вы не можете отвечать на сообщения
Вы не можете редактировать свои сообщения
Вы не можете удалять свои сообщения
Вы не можете голосовать в опросах
Вы не можете прикреплять файлы к сообщениям
Вы не можете скачивать файлы