Последний богатырь: Корень зла (2020) WEB-DLRip [H.264]

Ответить на тему
 
Автор Сообщение

MAG3131 ®

Пол: Мужской

Стаж: 52 года

Сообщений: 108

Откуда: Санкт-Петербург

Создавать темы 12-Авг-2021 23:11

[Цитировать]

Последний богатырь: Корень зла (2020) WEB-DLRip [H.264] - Производство: Россия / Yellow, Black & White
Жанр: приключения, семейный, комедия, фэнтези
Режиссер: Дмитрий Дьяченко
Продюсер: Кахабер Абашидзе, Эдуард Илоян, Антон Златопольский
Актеры: Виктор Хориняк, Мила Сивацкая, Екатерина Вилкова, Елена Яковлева, Константин Лавроненко, Сергей Бурунов, Елена Валюшкина, Кирилл Зайцев, Тимофей Трибунцев, Гарик Харламов
Описание:
Во второй части зрители узнают об истоках древнего зла, с которым героям пришлось столкнуться в первом фильме, увидят новые уголки сказочного Белогорья, и станут свидетелями захватывающих схваток с участием былинных богатырей.

Возраст: 6+ (зрителям, достигшим 6 лет)
Рейтинг MPAA: этот продукт не был классифицирован
Релиз от: MAG3131
Продолжительность: 02:01:20
Качество видео: WEB-DLRip
Перевод: Не требуется
Субтитры: Отсутствуют
Видео: AVC/H.264, 720x304, ~1417 kbps, 24 fps
Аудио: AC3, 2 ch, 192 kbps

MediaInfo

Общее
Уникальный идентификатор : 87991380052838937260985662786051103564 (0x423285FB85A592A1BB24DEDFE615DB4C)
Полное имя : Последний богатырь - 02 ''Корень зла'' (The Last Warrior - 02 ''Root Of Evil'').mkv
Формат : Matroska
Версия формата : Version 4
Размер файла : 1,36 Гбайт
Продолжительность : 2 ч. 1 м.
Общий поток : 1 601 Кбит/сек
Дата кодирования : UTC 2021-08-12 19:12:01
Программа кодирования : mkvmerge v60.0.0 ('Are We Copies?') 64-bit
Библиотека кодирования : libebml v1.4.2 + libmatroska v1.6.4
Attachments : Лог кодирования.log
Видео
Идентификатор : 1
Формат : AVC
Формат/Информация : Advanced Video Codec
Профиль формата : High@L4.1
Настройки формата : CABAC / 12 Ref Frames
Параметр CABAC формата : Да
Параметр RefFrames формата : 12 кадров
Идентификатор кодека : V_MPEG4/ISO/AVC
Продолжительность : 2 ч. 1 м.
Битрейт : 1 417 Кбит/сек
Ширина : 720 пикселей
Высота : 304 пикселя
Соотношение сторон : 2,35:1
Режим частоты кадров : Постоянный
Частота кадров : 24,000 кадра/сек
Цветовое пространство : YUV
Субдискретизация насыщенности : 4:2:0
Битовая глубина : 8 бит
Тип развёртки : Прогрессивная
Бит/(Пиксели*Кадры) : 0.270
Размер потока : 1,17 Гбайт (86%)
Заголовок : Последний богатырь - 02 ''Корень зла'' (The Last Warrior - 02 ''Root Of Evil'')
Библиотека кодирования : x264 core 157 r2969 d4099dd
Настройки программы : cabac=1 / ref=12 / deblock=1:-1:-1 / analyse=0x3:0x133 / me=umh / subme=11 / psy=1 / psy_rd=1.00:0.15 / mixed_ref=1 / me_range=64 / chroma_me=1 / trellis=2 / 8x8dct=1 / cqm=0 / deadzone=21,11 / fast_pskip=0 / chroma_qp_offset=-3 / threads=9 / lookahead_threads=2 / sliced_threads=0 / nr=0 / decimate=0 / interlaced=0 / bluray_compat=0 / constrained_intra=0 / bframes=16 / b_pyramid=2 / b_adapt=2 / b_bias=0 / direct=3 / weightb=1 / open_gop=0 / weightp=2 / keyint=240 / keyint_min=24 / scenecut=40 / intra_refresh=0 / rc_lookahead=60 / rc=2pass / mbtree=0 / bitrate=1417 / ratetol=1.0 / qcomp=0.60 / qpmin=0 / qpmax=69 / qpstep=4 / cplxblur=20.0 / qblur=0.5 / vbv_maxrate=50000 / vbv_bufsize=62500 / nal_hrd=none / filler=0 / ip_ratio=1.40 / pb_ratio=1.30 / aq=1:1.00
Язык : Russian
Default : Да
Forced : Нет
Аудио
Идентификатор : 2
Формат : AC-3
Формат/Информация : Audio Coding 3
Коммерческое название : Dolby Digital
Идентификатор кодека : A_AC3
Продолжительность : 2 ч. 1 м.
Вид битрейта : Постоянный
Битрейт : 192 Кбит/сек
Каналы : 2 канала
Channel layout : L R
Частота : 48,0 КГц
Частота кадров : 31,250 кадров/сек (1536 SPF)
Метод сжатия : С потерями
Размер потока : 167 Мбайт (12%)
Заголовок : Оригинал (AC-3, Постоянный, 192 Кбит/сек, 2 канала, 48,0 КГц)
Язык : Russian
Service kind : Complete Main
Default : Да
Forced : Нет
Меню
00:00:00.000 : Глава 1
00:09:25.070 : Глава 2
00:17:29.840 : Глава 3
00:22:35.960 : Глава 4
00:29:24.250 : Глава 5
00:37:59.950 : Глава 6
00:43:13.180 : Глава 7
00:49:56.580 : Глава 8
00:55:32.540 : Глава 9
01:06:15.990 : Глава 10
01:14:36.840 : Глава 11
01:21:01.870 : Глава 12
01:27:01.210 : Глава 13
01:40:26.660 : Глава 14
01:49:33.160 : Глава 15
Скриншоты:
Если надо вернуться на сидирование раздачи пишите в ЛС.
По вопросам изготовления рипов под заказ обращайтесь в ЛС.
[Профиль] [ЛС]
Показать сообщения:    
Ответить на тему

Текущее время: 24-Май 08:28

Часовой пояс: UTC + 3



Вы не можете начинать темы
Вы не можете отвечать на сообщения
Вы не можете редактировать свои сообщения
Вы не можете удалять свои сообщения
Вы не можете голосовать в опросах
Вы не можете прикреплять файлы к сообщениям
Вы не можете скачивать файлы