Метро (2012) BDRip [H.264]

Ответить на тему
 
Автор Сообщение

MAG3131 ®

Пол: Мужской

Стаж: 52 года

Сообщений: 108

Откуда: Санкт-Петербург

Создавать темы 14-Авг-2021 23:34

[Цитировать]

Метро (2012) BDRip [H.264] - Производство: Россия / Профит
Жанр: триллер, драма
Режиссер: Антон Мегердичев
Продюсер: Игорь Толстунов, Сергей Козлов, Анна Кагарлицкая
Актеры: Сергей Пускепалис, Анатолий Белый, Светлана Ходченкова, Анфиса Вистингаузен, Алексей Бардуков, Катерина Шпица, Елена Панова, Станислав Дужников, Кирилл Плетнёв, Иван Макаревич
Описание:
Широко развернувшееся в центре Москвы строительство новых зданий приводит к тому, что в одном из тоннелей метро между двумя станциями возникает трещина. Никто себе и представить не мог, что в результате нарушения герметичности перекрытия в тоннель хлынет вода из Москва-реки, и сотни пассажиров поезда окажутся во власти надвигающегося потопа. Бешеный поток воды грозит не только обрушением тоннелей метро, но и разрушением всего города.
Среди попавших в беду людей – врач городской больницы Андрей Гарин и его дочь Ксюша. Гарин сражается с катастрофой, пытаясь спасти оставшихся в живых пассажиров, в компании любовника своей жены. Гарину придется побороть обиду, гнев и страх. Он должен выжить, чтобы вернуть свою любовь, семью… свою прежнюю счастливую жизнь.

Возраст: 16+ (зрителям, достигшим 16 лет)
Рейтинг MPAA: этот продукт не был классифицирован
Релиз от: MAG3131
Продолжительность: 02:11:45
Качество видео: BDRip
Перевод: Не требуется
Субтитры: Отсутствуют
Видео: AVC/H.264, 720x304, ~2033 kbps, 23,976 fps
Аудио: AC3, 2 ch, 192 kbps

MediaInfo

Общее
Уникальный идентификатор : 115580563351956461951347805859750256148 (0x56F401BD4EF75E287A1F5634FFD29E14)
Полное имя : Метро (Metro).mkv
Формат : Matroska
Версия формата : Version 2
Размер файла : 2,05 Гбайт
Продолжительность : 2 ч. 11 м.
Общий поток : 2 226 Кбит/сек
Дата кодирования : UTC 2018-07-09 08:28:36
Программа кодирования : mkvmerge v24.0.0 ('Beyond The Pale') 64-bit
Библиотека кодирования : libebml v1.3.6 + libmatroska v1.4.9
Attachments : Лог кодирования.log
Видео
Идентификатор : 1
Формат : AVC
Формат/Информация : Advanced Video Codec
Профиль формата : High@L4.1
Настройки формата : CABAC / 12 Ref Frames
Параметр CABAC формата : Да
Параметр RefFrames формата : 12 кадров
Идентификатор кодека : V_MPEG4/ISO/AVC
Продолжительность : 2 ч. 11 м.
Битрейт : 2 033 Кбит/сек
Ширина : 720 пикселей
Высота : 304 пикселя
Соотношение сторон : 2,35:1
Режим частоты кадров : Постоянный
Частота кадров : 23,976 (24000/1001) кадра/сек
Цветовое пространство : YUV
Субдискретизация насыщенности : 4:2:0
Битовая глубина : 8 бит
Тип развёртки : Прогрессивная
Бит/(Пиксели*Кадры) : 0.387
Размер потока : 1,83 Гбайт (89%)
Заголовок : Метро (Metro)
Библиотека кодирования : x264 core 155 r2901 7d0ff22
Настройки программы : cabac=1 / ref=12 / deblock=1:-1:-1 / analyse=0x3:0x133 / me=umh / subme=11 / psy=1 / psy_rd=1.00:0.15 / mixed_ref=1 / me_range=64 / chroma_me=1 / trellis=2 / 8x8dct=1 / cqm=0 / deadzone=21,11 / fast_pskip=0 / chroma_qp_offset=-3 / threads=6 / lookahead_threads=1 / sliced_threads=0 / nr=0 / decimate=0 / interlaced=0 / bluray_compat=0 / constrained_intra=0 / bframes=16 / b_pyramid=2 / b_adapt=2 / b_bias=0 / direct=3 / weightb=1 / open_gop=0 / weightp=2 / keyint=240 / keyint_min=23 / scenecut=40 / intra_refresh=0 / rc_lookahead=60 / rc=2pass / mbtree=0 / bitrate=2033 / ratetol=1.0 / qcomp=0.60 / qpmin=0 / qpmax=69 / qpstep=4 / cplxblur=20.0 / qblur=0.5 / vbv_maxrate=50000 / vbv_bufsize=62500 / nal_hrd=none / filler=0 / ip_ratio=1.40 / pb_ratio=1.30 / aq=1:1.00
Язык : Russian
Default : Да
Forced : Нет
Аудио
Идентификатор : 2
Формат : AC-3
Формат/Информация : Audio Coding 3
Коммерческое название : Dolby Digital
Идентификатор кодека : A_AC3
Продолжительность : 2 ч. 11 м.
Вид битрейта : Постоянный
Битрейт : 192 Кбит/сек
Каналы : 2 канала
Channel layout : L R
Частота : 48,0 КГц
Частота кадров : 31,250 кадров/сек (1536 SPF)
Метод сжатия : С потерями
Размер потока : 181 Мбайт (9%)
Заголовок : Оригинал (AC-3, Постоянный, 192 Кбит/сек, 2 канала, 48,0 КГц, 16 бит)
Язык : Russian
Service kind : Complete Main
Default : Да
Forced : Нет
Меню
00:00:00.000 : en:00:00:00.000
00:06:11.121 : en:00:06:11.121
00:13:05.284 : en:00:13:05.284
00:19:35.758 : en:00:19:35.758
00:26:29.129 : en:00:26:29.129
00:33:53.406 : en:00:33:53.406
00:41:08.883 : en:00:41:08.883
00:50:48.712 : en:00:50:48.712
00:56:44.067 : en:00:56:44.067
01:04:35.914 : en:01:04:35.914
01:11:52.808 : en:01:11:52.808
01:19:04.114 : en:01:19:04.114
01:26:17.422 : en:01:26:17.422
01:34:31.791 : en:01:34:31.791
01:41:21.242 : en:01:41:21.242
01:48:46.186 : en:01:48:46.186
01:56:28.607 : en:01:56:28.607
02:06:42.553 : en:02:06:42.553
Скриншоты:
Если надо вернуться на сидирование раздачи пишите в ЛС.
По вопросам изготовления рипов под заказ обращайтесь в ЛС.
[Профиль] [ЛС]
Показать сообщения:    
Ответить на тему

Текущее время: 24-Май 10:08

Часовой пояс: UTC + 3



Вы не можете начинать темы
Вы не можете отвечать на сообщения
Вы не можете редактировать свои сообщения
Вы не можете удалять свои сообщения
Вы не можете голосовать в опросах
Вы не можете прикреплять файлы к сообщениям
Вы не можете скачивать файлы