Человек, который слишком мало знал / The Man Who Knew Too Little (1997) BDRip [H.264]

Ответить на тему
 
Автор Сообщение

MAG3131 ®

Пол: Мужской

Стаж: 52 года

Сообщений: 108

Откуда: Санкт-Петербург

Создавать темы 15-Авг-2021 02:38

[Цитировать]

Человек, который слишком мало знал / The Man Who Knew Too Little (1997) BDRip [H.264] - Производство: США, Германия / Polar Productions, Regency Enterprises, Taurus Film, Warner Bros.
Жанр: драма, комедия, криминал
Режиссер: Джон Эмиел
Продюсер: Арнон Милчен, Марк Тарлов, Джозеф М. Карачиоло мл.
Актеры: Билл Мюррей, Питер Галлахер, Джоэнн Уэлли, Альфред Молина, Ричард Уилсон, Джон Стэндинг, Саймон Чэндлер, Джеральдин Джеймс, Анна Чэнселлор, Николас Вудесон
Описание:
Приехавшего в Лондон Уоллеса Ричи принимают не за того, кто он есть на самом деле. Случайно он получает секретные инструкции и становится крутым суперагентом, сам того не подозревая.
Ричи простой и наивный парень, он с трудом выговаривает сложные слова и вряд ли так хорош, как кажется, но… он весело решает все проблемы, особенно не задумываясь над ними. Стрельба, погони, нокауты и бомбы с часовым механизмом — это только начало. Начало жизни шпиона!

Возраст: 16+ (зрителям, достигшим 16 лет)
Рейтинг MPAA: PG (рекомендуется присутствие родителей)
Релиз от: MAG3131
Продолжительность: 01:33:43
Качество видео: BDRip
Перевод: Дублированный
Субтитры: Отсутствуют
Видео: AVC/H.264, 720x408, ~1893 kbps, 23,976 fps
Аудио: AC3, 2 ch, 192 kbps (Русский - Дублированный ''Варус Видео'' с вставками двухголосого ''НТВ+'')

MediaInfo

Общее
Уникальный идентификатор : 107785328845291549269219967687954739781 (0x5116B30151ADC96E504DD4337ACF3245)
Полное имя : Человек, который слишком мало знал (The Man Who Knew Too Little).mkv
Формат : Matroska
Версия формата : Version 4
Размер файла : 1,37 Гбайт
Продолжительность : 1 ч. 33 м.
Общий поток : 2 086 Кбит/сек
Дата кодирования : UTC 2021-08-13 23:52:17
Программа кодирования : mkvmerge v60.0.0 ('Are We Copies?') 64-bit
Библиотека кодирования : libebml v1.4.2 + libmatroska v1.6.4
Attachments : Лог кодирования.log
Видео
Идентификатор : 1
Формат : AVC
Формат/Информация : Advanced Video Codec
Профиль формата : High@L4.1
Настройки формата : CABAC / 12 Ref Frames
Параметр CABAC формата : Да
Параметр RefFrames формата : 12 кадров
Идентификатор кодека : V_MPEG4/ISO/AVC
Продолжительность : 1 ч. 33 м.
Битрейт : 1 893 Кбит/сек
Ширина : 720 пикселей
Высота : 408 пикселей
Соотношение сторон : 16:9
Режим частоты кадров : Постоянный
Частота кадров : 23,976 (24000/1001) кадра/сек
Цветовое пространство : YUV
Субдискретизация насыщенности : 4:2:0
Битовая глубина : 8 бит
Тип развёртки : Прогрессивная
Бит/(Пиксели*Кадры) : 0.269
Размер потока : 1,21 Гбайт (89%)
Заголовок : Человек, который слишком мало знал (The Man Who Knew Too Little)
Библиотека кодирования : x264 core 152 r2851 ba24899
Настройки программы : cabac=1 / ref=12 / deblock=1:-1:-1 / analyse=0x3:0x133 / me=umh / subme=11 / psy=1 / psy_rd=1.00:0.15 / mixed_ref=1 / me_range=64 / chroma_me=1 / trellis=2 / 8x8dct=1 / cqm=0 / deadzone=21,11 / fast_pskip=0 / chroma_qp_offset=-3 / threads=6 / lookahead_threads=1 / sliced_threads=0 / nr=0 / decimate=0 / interlaced=0 / bluray_compat=0 / constrained_intra=0 / bframes=16 / b_pyramid=2 / b_adapt=2 / b_bias=0 / direct=3 / weightb=1 / open_gop=0 / weightp=2 / keyint=240 / keyint_min=23 / scenecut=40 / intra_refresh=0 / rc_lookahead=60 / rc=2pass / mbtree=0 / bitrate=1893 / ratetol=1.0 / qcomp=0.60 / qpmin=0 / qpmax=69 / qpstep=4 / cplxblur=20.0 / qblur=0.5 / vbv_maxrate=50000 / vbv_bufsize=62500 / nal_hrd=none / filler=0 / ip_ratio=1.40 / pb_ratio=1.30 / aq=1:1.00
Язык : English
Default : Да
Forced : Нет
Аудио
Идентификатор : 2
Формат : AC-3
Формат/Информация : Audio Coding 3
Коммерческое название : Dolby Digital
Идентификатор кодека : A_AC3
Продолжительность : 1 ч. 33 м.
Вид битрейта : Постоянный
Битрейт : 192 Кбит/сек
Каналы : 2 канала
Channel layout : L R
Частота : 48,0 КГц
Частота кадров : 31,250 кадров/сек (1536 SPF)
Метод сжатия : С потерями
Размер потока : 129 Мбайт (9%)
Заголовок : Дублированный ''Варус Видео'' с вставками двухголосого ''НТВ+'' (AC-3, Постоянный, 192 Кбит/сек, 2 канала, 48,0 КГц)
Язык : Russian
Service kind : Complete Main
Default : Да
Forced : Нет
Меню
00:00:00.000 : 00:00:00.000
00:09:12.927 : 00:09:12.927
00:19:25.081 : 00:19:25.081
00:30:38.962 : 00:30:38.962
00:40:01.274 : 00:40:01.274
00:50:57.221 : 00:50:57.221
00:59:58.428 : 00:59:58.428
01:09:34.003 : 01:09:34.003
01:19:44.113 : 01:19:44.113
Скриншоты:
Если надо вернуться на сидирование раздачи пишите в ЛС.
По вопросам изготовления рипов под заказ обращайтесь в ЛС.
[Профиль] [ЛС]
Показать сообщения:    
Ответить на тему

Текущее время: 24-Май 08:45

Часовой пояс: UTC + 3



Вы не можете начинать темы
Вы не можете отвечать на сообщения
Вы не можете редактировать свои сообщения
Вы не можете удалять свои сообщения
Вы не можете голосовать в опросах
Вы не можете прикреплять файлы к сообщениям
Вы не можете скачивать файлы