Кавказская пленница, или Новые приключения Шурика (1966) BDRip [H.264] [Реставрация от ''Крупного плана'']

Ответить на тему
 
Автор Сообщение

MAG3131 ®

Пол: Мужской

Стаж: 52 года

Сообщений: 108

Откуда: Санкт-Петербург

Создавать темы 24-Авг-2021 00:48

[Цитировать]

Кавказская пленница, или Новые приключения Шурика (1966) BDRip [H.264] [Реставрация от ''Крупного плана''] - Производство: СССР / Госкино, Мосфильм
Жанр: комедия, приключения, мелодрама, мюзикл
Режиссер: Леонид Гайдай
Актеры: Александр Демьяненко, Наталья Варлей, Юрий Никулин, Георгий Вицин, Евгений Моргунов, Владимир Этуш, Фрунзик Мкртчян, Руслан Ахметов, Нина Гребешкова, Михаил Глузский
Описание:
Отправившись в одну из горных республик собирать фольклор, студент Шурик влюбляется в симпатичную девушку Нину - спортсменку, отличницу, комсомолку и просто красавицу. Но её внезапно похищают банда их трёх человек, чтобы насильно выдать замуж. Наивный Шурик не сразу сообразил, что творится у него под носом, - однако затем отважно ринулся освобождать кавказскую пленницу.

Возраст: 6+ (зрителям, достигшим 6 лет)
Рейтинг MPAA: этот продукт не был классифицирован
Релиз от: MAG3131
Продолжительность: 01:19:53
Качество видео: BDRip
Перевод: Не требуется
Субтитры: Отсутствуют
Видео: AVC/H.264, 720x528, ~4705 kbps, 23,976 fps
Аудио: AC3, 2 ch, 192 kbps

MediaInfo

Общее
Уникальный идентификатор : 36236821786513670102650920539493605734 (0x1B42F54096E746BA3BD9CF20B71DA166)
Полное имя : Приключения Шурика - 02 ''Кавказская пленница, или Новые приключения Шурика'' (Полная реставрация ''Крупный план'') (Shurik's Adventures - 02 ''Prisoner Of The Caucasus, Or Shurik's New Adventures'') (Full Restoration Of ''Close-Up'').mkv
Формат : Matroska
Версия формата : Version 2
Размер файла : 2,73 Гбайт
Продолжительность : 1 ч. 19 м.
Общий поток : 4 899 Кбит/сек
Дата кодирования : UTC 2018-09-18 00:42:37
Программа кодирования : mkvmerge v26.0.0 ('In The Game') 64-bit
Библиотека кодирования : libebml v1.3.6 + libmatroska v1.4.9
Attachments : Лог кодирования.log
Видео
Идентификатор : 1
Формат : AVC
Формат/Информация : Advanced Video Codec
Профиль формата : High@L4.1
Настройки формата : CABAC / 12 Ref Frames
Параметр CABAC формата : Да
Параметр RefFrames формата : 12 кадров
Идентификатор кодека : V_MPEG4/ISO/AVC
Продолжительность : 1 ч. 19 м.
Битрейт : 4 705 Кбит/сек
Ширина : 720 пикселей
Высота : 528 пикселей
Соотношение сторон : 4:3
Режим частоты кадров : Постоянный
Частота кадров : 23,976 (24000/1001) кадра/сек
Цветовое пространство : YUV
Субдискретизация насыщенности : 4:2:0
Битовая глубина : 8 бит
Тип развёртки : Прогрессивная
Бит/(Пиксели*Кадры) : 0.516
Размер потока : 2,57 Гбайт (94%)
Заголовок : Приключения Шурика - 02 ''Кавказская пленница, или Новые приключения Шурика'' (Полная реставрация ''Крупный план'') (Shurik's Adventures - 02 ''Prisoner Of The Caucasus, Or Shurik's New Adventures'') (Full Restoration Of ''Close-Up'')
Библиотека кодирования : x264 core 155 r2901 7d0ff22
Настройки программы : cabac=1 / ref=12 / deblock=1:-1:-1 / analyse=0x3:0x133 / me=umh / subme=11 / psy=1 / psy_rd=1.00:0.15 / mixed_ref=1 / me_range=64 / chroma_me=1 / trellis=2 / 8x8dct=1 / cqm=0 / deadzone=21,11 / fast_pskip=0 / chroma_qp_offset=-3 / threads=6 / lookahead_threads=1 / sliced_threads=0 / nr=0 / decimate=0 / interlaced=0 / bluray_compat=0 / constrained_intra=0 / bframes=16 / b_pyramid=2 / b_adapt=2 / b_bias=0 / direct=3 / weightb=1 / open_gop=0 / weightp=2 / keyint=240 / keyint_min=23 / scenecut=40 / intra_refresh=0 / rc_lookahead=60 / rc=2pass / mbtree=0 / bitrate=4705 / ratetol=1.0 / qcomp=0.60 / qpmin=0 / qpmax=69 / qpstep=4 / cplxblur=20.0 / qblur=0.5 / vbv_maxrate=50000 / vbv_bufsize=62500 / nal_hrd=none / filler=0 / ip_ratio=1.40 / pb_ratio=1.30 / aq=1:1.00
Язык : Russian
Default : Да
Forced : Нет
Аудио
Идентификатор : 2
Формат : AC-3
Формат/Информация : Audio Coding 3
Коммерческое название : Dolby Digital
Идентификатор кодека : A_AC3
Продолжительность : 1 ч. 19 м.
Вид битрейта : Постоянный
Битрейт : 192 Кбит/сек
Каналы : 2 канала
Channel layout : L R
Частота : 48,0 КГц
Частота кадров : 31,250 кадров/сек (1536 SPF)
Метод сжатия : С потерями
Размер потока : 110 Мбайт (4%)
Заголовок : Оригинал (AC-3, Постоянный, 192 Кбит/сек, 2 канала, 48,0 КГц)
Язык : Russian
Service kind : Complete Main
Default : Да
Forced : Нет
Меню
00:00:00.000 : :00:00:00.000
00:05:52.477 : :00:05:52.477
00:09:11.718 : :00:09:11.718
00:11:31.190 : :00:11:31.190
00:16:08.551 : :00:16:08.551
00:23:07.970 : :00:23:07.970
00:26:04.730 : :00:26:04.730
00:31:01.234 : :00:31:01.234
00:33:40.435 : :00:33:40.435
00:38:45.907 : :00:38:45.907
00:44:11.148 : :00:44:11.148
00:51:10.734 : :00:51:10.734
00:57:19.227 : :00:57:19.227
01:00:15.070 : :01:00:15.070
01:13:13.431 : :01:13:13.431
01:18:14.857 : :01:18:14.857
Скриншоты:
Если надо вернуться на сидирование раздачи пишите в ЛС.
По вопросам изготовления рипов под заказ обращайтесь в ЛС.
[Профиль] [ЛС]
Показать сообщения:    
Ответить на тему

Текущее время: 24-Май 08:20

Часовой пояс: UTC + 3



Вы не можете начинать темы
Вы не можете отвечать на сообщения
Вы не можете редактировать свои сообщения
Вы не можете удалять свои сообщения
Вы не можете голосовать в опросах
Вы не можете прикреплять файлы к сообщениям
Вы не можете скачивать файлы