Иван Васильевич меняет профессию (1973) BDRip [H.264] [Реставрация от ''Крупного плана'']

Ответить на тему
 
Автор Сообщение

MAG3131 ®

Пол: Мужской

Стаж: 52 года

Сообщений: 108

Откуда: Санкт-Петербург

Создавать темы 24-Авг-2021 01:26

[Цитировать]

Иван Васильевич меняет профессию (1973) BDRip [H.264] [Реставрация от ''Крупного плана''] - Производство: СССР / Мосфильм
Жанр: фантастика, комедия, приключения
Режиссер: Леонид Гайдай
Актеры: Александр Демьяненко, Юрий Яковлев, Леонид Куравлёв, Наталья Крачковская, Савелий Крамаров, Наталья Селезнёва, Владимир Этуш, Михаил Пуговкин, Сергей Филиппов, Наталья Кустинская
Описание:
Инженер-изобретатель Тимофеев сконструировал машину времени, которая соединила его квартиру с далеким шестнадцатым веком - точнее, с палатами государя Ивана Грозного. Туда-то и попадают тезка царя пенсионер-общественник Иван Васильевич Бунша и квартирный вор Жорж Милославский.
На их место в двадцатом веке «переселяется» великий государь. Поломка машины приводит ко множеству неожиданных и забавных событий...

Возраст: 6+ (зрителям, достигшим 6 лет)
Рейтинг MPAA: этот продукт не был классифицирован
Релиз от: MAG3131
Продолжительность: 01:31:39
Качество видео: BDRip
Перевод: Не требуется
Субтитры: Отсутствуют
Видео: AVC/H.264, 720x528, ~5144 kbps, 23,976 fps
Аудио: AC3, 2 ch, 192 kbps

MediaInfo

Общее
Уникальный идентификатор : 271105399013396715876035457562702930839 (0xCBF500279DBE7AE7BDCD8AAD4C926397)
Полное имя : Приключения Шурика - 03 ''Иван Васильевич меняет профессию'' (Полная реставрация ''Крупный план'') (Shurik's Adventures - 03 ''Ivan Vasilievich ''Back To The Future'''') (Full Restoration Of ''Close-Up'').mkv
Формат : Matroska
Версия формата : Version 2
Размер файла : 3,42 Гбайт
Продолжительность : 1 ч. 31 м.
Общий поток : 5 337 Кбит/сек
Дата кодирования : UTC 2018-09-20 20:34:50
Программа кодирования : mkvmerge v26.0.0 ('In The Game') 64-bit
Библиотека кодирования : libebml v1.3.6 + libmatroska v1.4.9
Attachments : Лог кодирования.log
Видео
Идентификатор : 1
Формат : AVC
Формат/Информация : Advanced Video Codec
Профиль формата : High@L4.1
Настройки формата : CABAC / 12 Ref Frames
Параметр CABAC формата : Да
Параметр RefFrames формата : 12 кадров
Идентификатор кодека : V_MPEG4/ISO/AVC
Продолжительность : 1 ч. 31 м.
Битрейт : 5 144 Кбит/сек
Ширина : 720 пикселей
Высота : 528 пикселей
Соотношение сторон : 4:3
Режим частоты кадров : Постоянный
Частота кадров : 23,976 (24000/1001) кадра/сек
Цветовое пространство : YUV
Субдискретизация насыщенности : 4:2:0
Битовая глубина : 8 бит
Тип развёртки : Прогрессивная
Бит/(Пиксели*Кадры) : 0.564
Размер потока : 3,23 Гбайт (94%)
Заголовок : Приключения Шурика - 03 ''Иван Васильевич меняет профессию'' (Полная реставрация ''Крупный план'') (Shurik's Adventures - 03 ''Ivan Vasilievich ''Back To The Future'''') (Full Restoration Of ''Close-Up'')
Библиотека кодирования : x264 core 155 r2901 7d0ff22
Настройки программы : cabac=1 / ref=12 / deblock=1:-1:-1 / analyse=0x3:0x133 / me=umh / subme=11 / psy=1 / psy_rd=1.00:0.15 / mixed_ref=1 / me_range=64 / chroma_me=1 / trellis=2 / 8x8dct=1 / cqm=0 / deadzone=21,11 / fast_pskip=0 / chroma_qp_offset=-3 / threads=6 / lookahead_threads=1 / sliced_threads=0 / nr=0 / decimate=0 / interlaced=0 / bluray_compat=0 / constrained_intra=0 / bframes=16 / b_pyramid=2 / b_adapt=2 / b_bias=0 / direct=3 / weightb=1 / open_gop=0 / weightp=2 / keyint=240 / keyint_min=23 / scenecut=40 / intra_refresh=0 / rc_lookahead=60 / rc=2pass / mbtree=0 / bitrate=5144 / ratetol=1.0 / qcomp=0.60 / qpmin=0 / qpmax=69 / qpstep=4 / cplxblur=20.0 / qblur=0.5 / vbv_maxrate=50000 / vbv_bufsize=62500 / nal_hrd=none / filler=0 / ip_ratio=1.40 / pb_ratio=1.30 / aq=1:1.00
Язык : Russian
Default : Да
Forced : Нет
Аудио
Идентификатор : 2
Формат : AC-3
Формат/Информация : Audio Coding 3
Коммерческое название : Dolby Digital
Идентификатор кодека : A_AC3
Продолжительность : 1 ч. 31 м.
Вид битрейта : Постоянный
Битрейт : 192 Кбит/сек
Каналы : 2 канала
Channel layout : L R
Частота : 48,0 КГц
Частота кадров : 31,250 кадров/сек (1536 SPF)
Метод сжатия : С потерями
Размер потока : 126 Мбайт (4%)
Заголовок : Оригинал (AC-3, Постоянный, 192 Кбит/сек, 2 канала, 48,0 КГц)
Язык : Russian
Service kind : Complete Main
Default : Да
Forced : Нет
Меню
00:00:00.000 : :00:00:00.000
00:08:01.690 : :00:08:01.690
00:12:06.684 : :00:12:06.684
00:17:05.566 : :00:17:05.566
00:22:05.699 : :00:22:05.699
00:27:41.660 : :00:27:41.660
00:31:35.811 : :00:31:35.811
00:37:12.313 : :00:37:12.313
00:46:36.127 : :00:46:36.127
00:49:43.063 : :00:49:43.063
00:59:18.638 : :00:59:18.638
01:06:17.098 : :01:06:17.098
01:09:48.226 : :01:09:48.226
01:18:32.625 : :01:18:32.625
01:23:40.015 : :01:23:40.015
01:28:22.672 : :01:28:22.672
Скриншоты:
Если надо вернуться на сидирование раздачи пишите в ЛС.
По вопросам изготовления рипов под заказ обращайтесь в ЛС.
[Профиль] [ЛС]
Показать сообщения:    
Ответить на тему

Текущее время: 24-Май 09:08

Часовой пояс: UTC + 3



Вы не можете начинать темы
Вы не можете отвечать на сообщения
Вы не можете редактировать свои сообщения
Вы не можете удалять свои сообщения
Вы не можете голосовать в опросах
Вы не можете прикреплять файлы к сообщениям
Вы не можете скачивать файлы