Агент Коди Бэнкс 2: Пункт назначения — Лондон / Agent Cody Banks 2: Destination London (2004) BDRip [H.264]

Ответить на тему
 
Автор Сообщение

MAG3131 ®

Пол: Мужской

Стаж: 52 года

Сообщений: 108

Откуда: Санкт-Петербург

Создавать темы 24-Авг-2021 02:30

[Цитировать]

Агент Коди Бэнкс 2: Пункт назначения — Лондон / Agent Cody Banks 2: Destination London (2004) BDRip [H.264] - Производство: США, Великобритания / Dylan Sellers Productions, Madacy Entertainment Group Inc., Maverick Films, Metro-Goldwyn-Mayer (MGM), Splendid Pictures
Жанр: фантастика, боевик, мелодрама, комедия, приключения, семейный
Режиссер: Кевин Аллен
Продюсер: Дэвид Глассер, Дэвид Никсей, Гай Озери
Актеры: Фрэнки Муниз, Энтони Андерсон, Ханна Спирритт, Синтия Стивенсон, Дэниэл Робак, Анна Чэнселлор, Кит Аллен, Джеймс Фолкнер, Дэвид Келли, Сантьяго Сегура
Описание:
Обычный сиэттловский тинейджер Коди Бэнкс, по совместительству младший секретный агент ЦРУ, снова должен спасать родину. На этот раз он отправляется в Лондон. По легенде он - студент, приехавший учиться по обмену.
Однако его главная задача - найти украденное секретное устройство, позволяющее управлять сознанием других людей. Но в ходе операции Бэнкс понимает, что его «операция» - это прикрытие большой аферы, в которую замешано его начальство…

Возраст: 12+ (зрителям, достигшим 12 лет)
Рейтинг MPAA: PG (рекомендуется присутствие родителей)
Релиз от: MAG3131
Продолжительность: 01:40:03
Качество видео: BDRip
Перевод: Дублированный
Субтитры: Отсутствуют
Видео: AVC/H.264, 720x304, ~1761 kbps, 23,976 fps
Аудио: AC3, 2 ch, 192 kbps (Русский - Дублированный ''Невафильм / R2'' с вставками авторского ''Евгений Рудой'')

MediaInfo

Общее
Уникальный идентификатор : 331067921291810096590373380158151171923 (0xF9115CC14741076DFB1859AF333F9F53)
Полное имя : D:\Films Coding\00\Агент Коди Бэнкс - 02 ''Пункт назначения – Лондон'' (Agent Cody Banks - 02 ''Destination London'').mkv
Формат : Matroska
Версия формата : Version 4
Размер файла : 1,36 Гбайт
Продолжительность : 1 ч. 40 м.
Общий поток : 1 953 Кбит/сек
Дата кодирования : UTC 2021-08-23 21:16:09
Программа кодирования : mkvmerge v60.0.0 ('Are We Copies?') 64-bit
Библиотека кодирования : libebml v1.4.2 + libmatroska v1.6.4
Attachments : Лог кодирования.log
Видео
Идентификатор : 1
Формат : AVC
Формат/Информация : Advanced Video Codec
Профиль формата : High@L4.1
Настройки формата : CABAC / 12 Ref Frames
Параметр CABAC формата : Да
Параметр RefFrames формата : 12 кадров
Идентификатор кодека : V_MPEG4/ISO/AVC
Продолжительность : 1 ч. 40 м.
Битрейт : 1 761 Кбит/сек
Ширина : 720 пикселей
Высота : 304 пикселя
Соотношение сторон : 2,35:1
Режим частоты кадров : Постоянный
Частота кадров : 23,976 (24000/1001) кадра/сек
Цветовое пространство : YUV
Субдискретизация насыщенности : 4:2:0
Битовая глубина : 8 бит
Тип развёртки : Прогрессивная
Бит/(Пиксели*Кадры) : 0.336
Размер потока : 1,20 Гбайт (88%)
Заголовок : Агент Коди Бэнкс - 02 ''Пункт назначения – Лондон'' (Agent Cody Banks - 02 ''Destination London'')
Библиотека кодирования : x264 core 155 r2901 7d0ff22
Настройки программы : cabac=1 / ref=12 / deblock=1:-1:-1 / analyse=0x3:0x133 / me=umh / subme=11 / psy=1 / psy_rd=1.00:0.15 / mixed_ref=1 / me_range=64 / chroma_me=1 / trellis=2 / 8x8dct=1 / cqm=0 / deadzone=21,11 / fast_pskip=0 / chroma_qp_offset=-3 / threads=6 / lookahead_threads=1 / sliced_threads=0 / nr=0 / decimate=0 / interlaced=0 / bluray_compat=0 / constrained_intra=0 / bframes=16 / b_pyramid=2 / b_adapt=2 / b_bias=0 / direct=3 / weightb=1 / open_gop=0 / weightp=2 / keyint=240 / keyint_min=23 / scenecut=40 / intra_refresh=0 / rc_lookahead=60 / rc=2pass / mbtree=0 / bitrate=1761 / ratetol=1.0 / qcomp=0.60 / qpmin=0 / qpmax=69 / qpstep=4 / cplxblur=20.0 / qblur=0.5 / vbv_maxrate=50000 / vbv_bufsize=62500 / nal_hrd=none / filler=0 / ip_ratio=1.40 / pb_ratio=1.30 / aq=1:1.00
Язык : English
Default : Да
Forced : Нет
Аудио
Идентификатор : 2
Формат : AC-3
Формат/Информация : Audio Coding 3
Коммерческое название : Dolby Digital
Идентификатор кодека : A_AC3
Продолжительность : 1 ч. 40 м.
Вид битрейта : Постоянный
Битрейт : 192 Кбит/сек
Каналы : 2 канала
Channel layout : L R
Частота : 48,0 КГц
Частота кадров : 31,250 кадров/сек (1536 SPF)
Метод сжатия : С потерями
Размер потока : 137 Мбайт (10%)
Заголовок : Дублированный ''Невафильм / R2'' с вставками авторского ''Евгений Рудой'' (AC-3, Постоянный, 192 Кбит/сек, 2 канала, 48,0 КГц)
Язык : Russian
Service kind : Complete Main
Default : Да
Forced : Нет
Скриншоты:
Если надо вернуться на сидирование раздачи пишите в ЛС.
По вопросам изготовления рипов под заказ обращайтесь в ЛС.
[Профиль] [ЛС]
Показать сообщения:    
Ответить на тему

Текущее время: 24-Май 08:36

Часовой пояс: UTC + 3



Вы не можете начинать темы
Вы не можете отвечать на сообщения
Вы не можете редактировать свои сообщения
Вы не можете удалять свои сообщения
Вы не можете голосовать в опросах
Вы не можете прикреплять файлы к сообщениям
Вы не можете скачивать файлы