Особые Рубаки Рубаки / Slayers Special / Slayers: The Book of Spells (1996/1997) BDRip [H.264] [3 из 3]

Ответить на тему
 
Автор Сообщение

MAG3131 ®

Пол: Мужской

Стаж: 52 года

Сообщений: 108

Откуда: Санкт-Петербург

Создавать темы 15-Сен-2021 17:28

[Цитировать]

Особые Рубаки Рубаки / Slayers Special / Slayers: The Book of Spells (1996/1997) BDRip [H.264] [3 из 3] - Производство: Япония / J.C. Staff
Жанр: аниме, фэнтези, комедия, приключения, мультфильм
Режиссер: Хироси Ватанабэ
Продюсер: Марк Уильямс
Актеры: Мария Кавамура, Мэгуми Хаясибара, Акира Исида, Риоко Ёсида, Сигэдзо Сасаока, Рюдзабуро Отомо, Хидэкацу Сибата, Бандзё Гинга, Ютака Симака, Канэто Сиодзава
Описание:
Присоединяйтесь к Лине и Наге, пока они срывают план по созданию совершенной химеры. Посмотрите, как они пытаются превратить изнеженного сына благородной семьи в мужчину, достойного назначения в Королевскую гвардию. Смотрите как наши героини берутся за мошенника, использующего магию, с зеркалом, которое дублирует его врагов в обратном порядке!

Возраст: этот продукт не был классифицирован
Рейтинг MPAA: этот продукт не был классифицирован
Релиз от: MAG3131

Эпизоды

Проект ''Кошмарная Химера'' (The Scary Chimera Plan) (1996)

Продолжительность: 00:29:06
Качество видео: BDRip
Перевод: Многоголосый
Субтитры: Отсутствуют
Видео: AVC/H.264, 720x520, ~3168 kbps, 23,976 fps
Аудио: AC3, 2 ch, 192 kbps (Русский - Многоголосый ''Cactus Team'')

MediaInfo

Общее
Уникальный идентификатор : 216007043511229810594820958112101889773 (0xA281717E0DDB939DFAD5553D5096F6ED)
Полное имя : Slayers Special (Slayers ''The Book Of Spells'')\Рубаки - 004 ''Особые Рубаки - 01 ''Проект ''Кошмарная Химера'''' (The Slayers - 004 ''Slayers Special (Slayers ''The Book Of Spells'') - 01 ''The Scary Chimera Plan'''').mkv
Формат : Matroska
Версия формата : Version 4
Размер файла : 700 Мбайт
Продолжительность : 29 м. 5 с.
Общий поток : 3 361 Кбит/сек
Дата кодирования : UTC 2021-09-14 13:53:01
Программа кодирования : mkvmerge v61.0.0 ('So') 64-bit
Библиотека кодирования : libebml v1.4.2 + libmatroska v1.6.4
Attachments : Лог кодирования.log
Видео
Идентификатор : 1
Формат : AVC
Формат/Информация : Advanced Video Codec
Профиль формата : High@L4.1
Настройки формата : CABAC / 12 Ref Frames
Параметр CABAC формата : Да
Параметр RefFrames формата : 12 кадров
Идентификатор кодека : V_MPEG4/ISO/AVC
Продолжительность : 29 м. 5 с.
Битрейт : 3 168 Кбит/сек
Ширина : 720 пикселей
Высота : 520 пикселей
Соотношение сторон : 1,385
Режим частоты кадров : Постоянный
Частота кадров : 23,976 (24000/1001) кадра/сек
Цветовое пространство : YUV
Субдискретизация насыщенности : 4:2:0
Битовая глубина : 8 бит
Тип развёртки : Прогрессивная
Бит/(Пиксели*Кадры) : 0.353
Размер потока : 646 Мбайт (92%)
Заголовок : Рубаки - 004 ''Особые Рубаки - 01 ''Проект ''Кошмарная Химера'''' (The Slayers - 004 ''Slayers Special (Slayers ''The Book Of Spells'') - 01 ''The Scary Chimera Plan'''')
Библиотека кодирования : x264 core 157 r2969 d4099dd
Настройки программы : cabac=1 / ref=12 / deblock=1:-1:-1 / analyse=0x3:0x133 / me=umh / subme=11 / psy=1 / psy_rd=1.00:0.15 / mixed_ref=1 / me_range=64 / chroma_me=1 / trellis=2 / 8x8dct=1 / cqm=0 / deadzone=21,11 / fast_pskip=0 / chroma_qp_offset=-3 / threads=12 / lookahead_threads=3 / sliced_threads=0 / nr=0 / decimate=0 / interlaced=0 / bluray_compat=0 / constrained_intra=0 / bframes=16 / b_pyramid=2 / b_adapt=2 / b_bias=0 / direct=3 / weightb=1 / open_gop=0 / weightp=2 / keyint=240 / keyint_min=23 / scenecut=40 / intra_refresh=0 / rc_lookahead=60 / rc=2pass / mbtree=0 / bitrate=3168 / ratetol=1.0 / qcomp=0.60 / qpmin=0 / qpmax=69 / qpstep=4 / cplxblur=20.0 / qblur=0.5 / vbv_maxrate=50000 / vbv_bufsize=62500 / nal_hrd=none / filler=0 / ip_ratio=1.40 / pb_ratio=1.30 / aq=1:1.00
Язык : Japanese
Default : Да
Forced : Нет
Аудио
Идентификатор : 2
Формат : AC-3
Формат/Информация : Audio Coding 3
Коммерческое название : Dolby Digital
Идентификатор кодека : A_AC3
Продолжительность : 29 м. 5 с.
Вид битрейта : Постоянный
Битрейт : 192 Кбит/сек
Каналы : 2 канала
Channel layout : L R
Частота : 48,0 КГц
Частота кадров : 31,250 кадров/сек (1536 SPF)
Метод сжатия : С потерями
Размер потока : 40,0 Мбайт (6%)
Заголовок : Многоголосый ''Cactus Team'' (AC-3, Постоянный, 192 Кбит/сек, 2 канала, 48,0 КГц)
Язык : Russian
Service kind : Complete Main
Default : Да
Forced : Нет
Скриншоты:
Если надо вернуться на сидирование раздачи пишите в ЛС.
По вопросам изготовления рипов под заказ обращайтесь в ЛС.

Рыцарство Джеффри (Jeffry’s Knighthood) (1996)

Продолжительность: 00:28:33
Качество видео: BDRip
Перевод: Многоголосый
Субтитры: Отсутствуют
Видео: AVC/H.264, 720x520, ~3231 kbps, 23,976 fps
Аудио: AC3, 2 ch, 192 kbps (Русский - Многоголосый ''Cactus Team'')

MediaInfo

Общее
Уникальный идентификатор : 97621174561684191381659655717919082216 (0x4971278222AFF8ECD6AF834EB1D346E8)
Полное имя : Slayers Special (Slayers ''The Book Of Spells'')\Рубаки - 005 ''Особые Рубаки - 02 ''Рыцарство Джеффри'''' (The Slayers - 005 ''Slayers Special (Slayers ''The Book Of Spells'') - 02 ''Jeffry’s Knighthood'''').mkv
Формат : Matroska
Версия формата : Version 4
Размер файла : 699 Мбайт
Продолжительность : 28 м. 33 с.
Общий поток : 3 425 Кбит/сек
Дата кодирования : UTC 2021-09-14 22:41:03
Программа кодирования : mkvmerge v61.0.0 ('So') 64-bit
Библиотека кодирования : libebml v1.4.2 + libmatroska v1.6.4
Attachments : Лог кодирования.log
Видео
Идентификатор : 1
Формат : AVC
Формат/Информация : Advanced Video Codec
Профиль формата : High@L4.1
Настройки формата : CABAC / 12 Ref Frames
Параметр CABAC формата : Да
Параметр RefFrames формата : 12 кадров
Идентификатор кодека : V_MPEG4/ISO/AVC
Продолжительность : 28 м. 33 с.
Битрейт : 3 231 Кбит/сек
Ширина : 720 пикселей
Высота : 520 пикселей
Соотношение сторон : 1,385
Режим частоты кадров : Постоянный
Частота кадров : 23,976 (24000/1001) кадра/сек
Цветовое пространство : YUV
Субдискретизация насыщенности : 4:2:0
Битовая глубина : 8 бит
Тип развёртки : Прогрессивная
Бит/(Пиксели*Кадры) : 0.360
Размер потока : 646 Мбайт (92%)
Заголовок : Рубаки - 005 ''Особые Рубаки - 02 ''Рыцарство Джеффри'''' (The Slayers - 005 ''Slayers Special (Slayers ''The Book Of Spells'') - 02 ''Jeffry’s Knighthood'''')
Библиотека кодирования : x264 core 157 r2969 d4099dd
Настройки программы : cabac=1 / ref=12 / deblock=1:-1:-1 / analyse=0x3:0x133 / me=umh / subme=11 / psy=1 / psy_rd=1.00:0.15 / mixed_ref=1 / me_range=64 / chroma_me=1 / trellis=2 / 8x8dct=1 / cqm=0 / deadzone=21,11 / fast_pskip=0 / chroma_qp_offset=-3 / threads=12 / lookahead_threads=3 / sliced_threads=0 / nr=0 / decimate=0 / interlaced=0 / bluray_compat=0 / constrained_intra=0 / bframes=16 / b_pyramid=2 / b_adapt=2 / b_bias=0 / direct=3 / weightb=1 / open_gop=0 / weightp=2 / keyint=240 / keyint_min=23 / scenecut=40 / intra_refresh=0 / rc_lookahead=60 / rc=2pass / mbtree=0 / bitrate=3231 / ratetol=1.0 / qcomp=0.60 / qpmin=0 / qpmax=69 / qpstep=4 / cplxblur=20.0 / qblur=0.5 / vbv_maxrate=50000 / vbv_bufsize=62500 / nal_hrd=none / filler=0 / ip_ratio=1.40 / pb_ratio=1.30 / aq=1:1.00
Язык : Japanese
Default : Да
Forced : Нет
Аудио
Идентификатор : 2
Формат : AC-3
Формат/Информация : Audio Coding 3
Коммерческое название : Dolby Digital
Идентификатор кодека : A_AC3
Продолжительность : 28 м. 33 с.
Вид битрейта : Постоянный
Битрейт : 192 Кбит/сек
Каналы : 2 канала
Channel layout : L R
Частота : 48,0 КГц
Частота кадров : 31,250 кадров/сек (1536 SPF)
Метод сжатия : С потерями
Размер потока : 39,2 Мбайт (6%)
Заголовок : Многоголосый ''Cactus Team'' (AC-3, Постоянный, 192 Кбит/сек, 2 канала, 48,0 КГц)
Язык : Russian
Service kind : Complete Main
Default : Да
Forced : Нет
Скриншоты:
Если надо вернуться на сидирование раздачи пишите в ЛС.
По вопросам изготовления рипов под заказ обращайтесь в ЛС.

Свет мой, зеркальце (Mirror, Mirror) (1997)

Продолжительность: 00:28:46
Качество видео: BDRip
Перевод: Многоголосый
Субтитры: Отсутствуют
Видео: AVC/H.264, 720x520, ~3205 kbps, 23,976 fps
Аудио: AC3, 2 ch, 192 kbps (Русский - Многоголосый ''Cactus Team'' с вставками одноголосого ''Digital Force'')

MediaInfo

Общее
Уникальный идентификатор : 337004211910135273450837664769488290098 (0xFD88A67ABB480A4C89DB45956F9D8132)
Полное имя : Slayers Special (Slayers ''The Book Of Spells'')\Рубаки - 006 ''Особые Рубаки - 03 ''Свет мой, зеркальце'''' (The Slayers - 006 ''Slayers Special (Slayers ''The Book Of Spells'') - 03 ''Mirror, Mirror'''').mkv
Формат : Matroska
Версия формата : Version 4
Размер файла : 699 Мбайт
Продолжительность : 28 м. 46 с.
Общий поток : 3 398 Кбит/сек
Дата кодирования : UTC 2021-09-15 12:06:51
Программа кодирования : mkvmerge v61.0.0 ('So') 64-bit
Библиотека кодирования : libebml v1.4.2 + libmatroska v1.6.4
Attachments : Лог кодирования.log
Видео
Идентификатор : 1
Формат : AVC
Формат/Информация : Advanced Video Codec
Профиль формата : High@L4.1
Настройки формата : CABAC / 12 Ref Frames
Параметр CABAC формата : Да
Параметр RefFrames формата : 12 кадров
Идентификатор кодека : V_MPEG4/ISO/AVC
Продолжительность : 28 м. 46 с.
Битрейт : 3 205 Кбит/сек
Ширина : 720 пикселей
Высота : 520 пикселей
Соотношение сторон : 1,385
Режим частоты кадров : Постоянный
Частота кадров : 23,976 (24000/1001) кадра/сек
Цветовое пространство : YUV
Субдискретизация насыщенности : 4:2:0
Битовая глубина : 8 бит
Тип развёртки : Прогрессивная
Бит/(Пиксели*Кадры) : 0.357
Размер потока : 646 Мбайт (92%)
Заголовок : Рубаки - 006 ''Особые Рубаки - 03 ''Свет мой, зеркальце'''' (The Slayers - 006 ''Slayers Special (Slayers ''The Book Of Spells'') - 03 ''Mirror, Mirror'''')
Библиотека кодирования : x264 core 157 r2969 d4099dd
Настройки программы : cabac=1 / ref=12 / deblock=1:-1:-1 / analyse=0x3:0x133 / me=umh / subme=11 / psy=1 / psy_rd=1.00:0.15 / mixed_ref=1 / me_range=64 / chroma_me=1 / trellis=2 / 8x8dct=1 / cqm=0 / deadzone=21,11 / fast_pskip=0 / chroma_qp_offset=-3 / threads=12 / lookahead_threads=3 / sliced_threads=0 / nr=0 / decimate=0 / interlaced=0 / bluray_compat=0 / constrained_intra=0 / bframes=16 / b_pyramid=2 / b_adapt=2 / b_bias=0 / direct=3 / weightb=1 / open_gop=0 / weightp=2 / keyint=240 / keyint_min=23 / scenecut=40 / intra_refresh=0 / rc_lookahead=60 / rc=2pass / mbtree=0 / bitrate=3205 / ratetol=1.0 / qcomp=0.60 / qpmin=0 / qpmax=69 / qpstep=4 / cplxblur=20.0 / qblur=0.5 / vbv_maxrate=50000 / vbv_bufsize=62500 / nal_hrd=none / filler=0 / ip_ratio=1.40 / pb_ratio=1.30 / aq=1:1.00
Язык : Japanese
Default : Да
Forced : Нет
Аудио
Идентификатор : 2
Формат : AC-3
Формат/Информация : Audio Coding 3
Коммерческое название : Dolby Digital
Идентификатор кодека : A_AC3
Продолжительность : 28 м. 46 с.
Вид битрейта : Постоянный
Битрейт : 192 Кбит/сек
Каналы : 2 канала
Channel layout : L R
Частота : 48,0 КГц
Частота кадров : 31,250 кадров/сек (1536 SPF)
Метод сжатия : С потерями
Размер потока : 39,5 Мбайт (6%)
Заголовок : Многоголосый ''Cactus Team'' с вставками одноголосого ''Digital Force'' (AC-3, Постоянный, 192 Кбит/сек, 2 канала, 48,0 КГц)
Язык : Russian
Service kind : Complete Main
Default : Да
Forced : Нет
Скриншоты:
Если надо вернуться на сидирование раздачи пишите в ЛС.
По вопросам изготовления рипов под заказ обращайтесь в ЛС.
Скриншоты:
Если надо вернуться на сидирование раздачи пишите в ЛС.
По вопросам изготовления рипов под заказ обращайтесь в ЛС.
[Профиль] [ЛС]

Larrymed

Пол: Мужской

Стаж: 19 часа

Сообщений: 1

Откуда: Brunei Darussalam

Создавать темы Сегодня, в 08:02 (спустя 8 месяца 8 дня)

[Цитировать]

смотреть порно хуй видео порно всем порно видео онлайн бесплатно без регистрации
порно фильм онлайн без смс русская белая анал
порно шд молодые
порно трахали молодую жену
порно видео трансов скачать бесплатно
смотреть порно трахнул русскую
порно дочь с большой
порно отлизал зрелой
смотреть порно фильм со
порно зрелых толстых волосатых
порно ролики анал
порно зрелые анал hd
19c1e48
[Профиль] [ЛС]
Показать сообщения:    
Ответить на тему

Текущее время: 24-Май 09:29

Часовой пояс: UTC + 3



Вы не можете начинать темы
Вы не можете отвечать на сообщения
Вы не можете редактировать свои сообщения
Вы не можете удалять свои сообщения
Вы не можете голосовать в опросах
Вы не можете прикреплять файлы к сообщениям
Вы не можете скачивать файлы