Затерянные в космосе / Lost in Space (1998) BDRip [H.264]

Ответить на тему
 
Автор Сообщение

MAG3131 ®

Пол: Мужской

Стаж: 52 года

Сообщений: 108

Откуда: Санкт-Петербург

Создавать темы 26-Сен-2021 22:00

[Цитировать]

Затерянные в космосе / Lost in Space (1998) BDRip [H.264] - Производство: США / Irwin Allen Productions, New Line Cinema, Prelude Pictures, Saltire Entertainment
Жанр: фантастика, боевик, триллер, приключения, семейный
Режиссер: Стивен Хопкинс
Продюсер: Карла Фрай, Акива Голдсман, Стивен Хопкинс
Актеры: Уильям Хёрт, Мими Роджерс, Хизер Грэм, Лэйси Шабер, Джек Джонсон, Гари Олдман, Мэтт ЛеБлан, Джаред Харрис, Марк Годдар, Ленни Джеймс
Описание:
Действие происходит в 2058 году, когда жить на Земле людям осталось не более двадцати лет - истощилось все. Выдающийся ученый Джон Робинсон и его семья отправляются на суперсовременном звездолете на далекую планету Альфа-прим, пригодную для обитания, чтобы построить там гиперворота, через которые будет осуществлена эвакуация человечества.
Экстремисты подсылают на борт коварного доктора Смита, чтобы тот уничтожил семью Робинсонов и сам корабль. Случайно оставшись на корабле, чтобы не погибнуть, Смит будит Робинсонов и майора Уэста, лихого боевого пилота.
Чтобы избежать столкновения с Солнцем, майор включает гипердвигатель, и звездолет оказывается затерянным в неизвестной доселе части Космоса.

Возраст: 16+ (зрителям, достигшим 16 лет)
Рейтинг MPAA: PG-13 (детям до 13 лет просмотр нежелателен)
Релиз от: MAG3131
Продолжительность: 02:10:15
Качество видео: BDRip
Перевод: Дублированный
Субтитры: Отсутствуют
Видео: AVC/H.264, 720x304, ~1307 kbps, 23,976 fps
Аудио: AC3, 2 ch, 192 kbps (Русский - Дублированный ''Союз-Видео'' с вставками любительского псевдо-дубляжа ''Deadman'')

MediaInfo

Общее
Уникальный идентификатор : 312445660916981909009610512463351506717 (0xEB0ED86E741CAC8FB9BA0E1942A7E71D)
Полное имя : Затерянные в космосе (1998 год) (Lost In Space) (1998 Year).mkv
Формат : Matroska
Версия формата : Version 4
Размер файла : 1,37 Гбайт
Продолжительность : 2 ч. 10 м.
Общий поток : 1 500 Кбит/сек
Дата кодирования : UTC 2021-09-05 00:36:24
Программа кодирования : mkvmerge v61.0.0 ('So') 64-bit
Библиотека кодирования : libebml v1.4.2 + libmatroska v1.6.4
Attachments : Лог кодирования.log
Видео
Идентификатор : 1
Формат : AVC
Формат/Информация : Advanced Video Codec
Профиль формата : High@L4.1
Настройки формата : CABAC / 12 Ref Frames
Параметр CABAC формата : Да
Параметр RefFrames формата : 12 кадров
Идентификатор кодека : V_MPEG4/ISO/AVC
Продолжительность : 2 ч. 10 м.
Битрейт : 1 307 Кбит/сек
Ширина : 720 пикселей
Высота : 304 пикселя
Соотношение сторон : 2,35:1
Режим частоты кадров : Постоянный
Частота кадров : 23,976 (24000/1001) кадра/сек
Цветовое пространство : YUV
Субдискретизация насыщенности : 4:2:0
Битовая глубина : 8 бит
Тип развёртки : Прогрессивная
Бит/(Пиксели*Кадры) : 0.249
Размер потока : 1,16 Гбайт (85%)
Заголовок : Затерянные в космосе (1998 год) (Lost In Space) (1998 Year)
Библиотека кодирования : x264 core 157 r2935 545de2f
Настройки программы : cabac=1 / ref=12 / deblock=1:-1:-1 / analyse=0x3:0x133 / me=umh / subme=11 / psy=1 / psy_rd=1.00:0.15 / mixed_ref=1 / me_range=64 / chroma_me=1 / trellis=2 / 8x8dct=1 / cqm=0 / deadzone=21,11 / fast_pskip=0 / chroma_qp_offset=-3 / threads=6 / lookahead_threads=1 / sliced_threads=0 / nr=0 / decimate=0 / interlaced=0 / bluray_compat=0 / constrained_intra=0 / bframes=16 / b_pyramid=2 / b_adapt=2 / b_bias=0 / direct=3 / weightb=1 / open_gop=0 / weightp=2 / keyint=240 / keyint_min=23 / scenecut=40 / intra_refresh=0 / rc_lookahead=60 / rc=2pass / mbtree=0 / bitrate=1307 / ratetol=1.0 / qcomp=0.60 / qpmin=0 / qpmax=69 / qpstep=4 / cplxblur=20.0 / qblur=0.5 / vbv_maxrate=50000 / vbv_bufsize=62500 / nal_hrd=none / filler=0 / ip_ratio=1.40 / pb_ratio=1.30 / aq=1:1.00
Язык : English
Default : Да
Forced : Нет
Аудио
Идентификатор : 2
Формат : AC-3
Формат/Информация : Audio Coding 3
Коммерческое название : Dolby Digital
Идентификатор кодека : A_AC3
Продолжительность : 2 ч. 10 м.
Вид битрейта : Постоянный
Битрейт : 192 Кбит/сек
Каналы : 2 канала
Channel layout : L R
Частота : 48,0 КГц
Частота кадров : 31,250 кадров/сек (1536 SPF)
Метод сжатия : С потерями
Размер потока : 179 Мбайт (13%)
Заголовок : Дублированный ''Союз-Видео'' с вставками любительского псевдо-дубляжа ''Deadman'' (AC-3, Постоянный, 192 Кбит/сек, 2 канала, 48,0 КГц)
Язык : Russian
Service kind : Complete Main
Default : Да
Forced : Нет
Меню
00:00:00.000 : :00:00:00.000
00:04:22.136 : :00:04:22.136
00:07:19.564 : :00:07:19.564
00:09:22.853 : :00:09:22.853
00:12:01.804 : :00:12:01.804
00:13:24.261 : :00:13:24.261
00:17:58.994 : :00:17:58.994
00:20:30.395 : :00:20:30.395
00:25:34.282 : :00:25:34.282
00:34:02.331 : :00:34:02.331
00:36:20.177 : :00:36:20.177
00:42:01.727 : :00:42:01.727
00:47:20.671 : :00:47:20.671
00:54:52.205 : :00:54:52.205
01:07:23.873 : :01:07:23.873
01:12:06.780 : :01:12:06.780
01:19:19.546 : :01:19:19.546
01:25:33.294 : :01:25:33.294
01:31:20.057 : :01:31:20.057
01:38:26.150 : :01:38:26.150
01:44:45.237 : :01:44:45.237
01:51:49.911 : :01:51:49.911
01:57:08.479 : :01:57:08.479
02:00:04.197 : :02:00:04.197
Скриншоты:
Если надо вернуться на сидирование раздачи пишите в ЛС.
По вопросам изготовления рипов под заказ обращайтесь в ЛС.
[Профиль] [ЛС]
Показать сообщения:    
Ответить на тему

Текущее время: 24-Май 08:02

Часовой пояс: UTC + 3



Вы не можете начинать темы
Вы не можете отвечать на сообщения
Вы не можете редактировать свои сообщения
Вы не можете удалять свои сообщения
Вы не можете голосовать в опросах
Вы не можете прикреплять файлы к сообщениям
Вы не можете скачивать файлы